西西论坛

 找回密码
 立即注册
搜索

闺蜜2 Girls.vs.Gangsters.2018.720p.BluRay.x264-REGRET 4.39GB

[复制链接]
电影首发 发表于 2019-5-24 13:07:50 | 显示全部楼层 |阅读模式
闺蜜2 Girls.vs.Gangsters.2018.720p.BluRay.x264-REGRET 4.39GB




译  名 Girls 2 / Girls VS Gangsters / 闺蜜2:单挑越南黑帮 / 闺蜜2:无二不作
片  名 闺蜜2
年  代 2018
产  地 香港 / 中国大陆
类  别 喜剧 / 爱情
语  言 汉语普通话
上映日期 2018-03-02(中国大陆)
IMDb评分  3.3/10 from 133 users
片  长 109分钟
导  演 黄真真 Chun-Chun Wong
编  剧 黄真真 Chun-Chun Wong / 侯颖桁 Silver Hau Wing-Hang / 郑善瑜 Skipper Cheng / 杜光庭 Daryl Doo
主  演 薛凯琪 Fiona Sit
      陈意涵 Ivy Chen
      张钧甯 Chun-Ning Chang
      迈克·泰森 Mike Tyson
      王水林 Shuilin Wang
      陈宝山 Bao Son Tran
      阮金红 Elly Tran Ha
      范湉湉 Tiantian Fan


标  签 烂片 | 狗血 | 友情 | 2018 | 喜剧 | 爱情 | 台湾 | 青春

简  介  

  经历过情感挫折的希汶(陈意涵 饰)突然收到男友乔立求婚,开心之余闺蜜Kimmy(薛凯琪 饰)决定邀请她去越南展开一场单身之旅,同行的人还有乔立的表妹晶晶(王水林 饰),没想到希汶还邀请了Kimmy的死对头嘉岚(张钧甯 饰)。期待已久的越南之行来临,但是Kimmy和嘉岚剑拔弩张气氛一直很尴尬,闺蜜四人更是误打误撞闯入了黑帮的大型聚会,Kimmy和嘉岚因为赌气斗酒,令场面一度失控。一夜酩酊大醉后,众人醒来发现晶晶失踪,冤家路窄的嘉岚、Kimmy以及一箱金子被莫名铐在一起。随即,闺蜜团接到神秘电话,要求她们在一天之内花光所有金条。三人惊慌失措之时,又有飞车黑帮赶来追杀。为了逃命、为了救出晶晶、为了解决谜团,闺蜜们踏上了一段啼笑皆非的脱险之旅 。
Video
ID                                       : 1
Format                                   : AVC
Format/Info                              : Advanced Video Codec
Format profile                           :  
Format settings                          : CABAC / 5 Ref Frames
Format settings, CABAC                   : Yes
Format settings, ReFrames                : 5 frames
Codec ID                                 : V_MPEG4/ISO/AVC
Duration                                 : 1 h 53 min
Bit rate                                 : 4 869 kb/s
Width                                    : 1 280 pixels
Height                                   : 536 pixels
Display aspect ratio                     : 2.40:1
Frame rate mode                          : Constant
Frame rate                               : 24.000 FPS
Color space                              : YUV
Chroma subsampling                       : 4:2:0
Bit depth                                : 8 bits
Scan type                                : Progressive
Bits/(Pixel*Frame)                       : 0.296
Stream size                              : 3.86 GiB (88%)
Writing library                          : x264 core 157 r2935 545de2f
Encoding settings                        : cabac=1 / ref=5 / deblock=1:-3:-3 / analyse=0x3:0x133 / me=umh / subme=9 / psy=1 / psy_rd=1.00:0.00 / mixed_ref=1 / me_range=16 / chroma_me=1 / trellis=2 / 8x8dct=1 / cqm=0 / deadzone=21,11 / fast_pskip=0 / chroma_qp_offset=-2 / threads=17 / lookahead_threads=1 / sliced_threads=0 / nr=0 / decimate=1 / interlaced=0 / bluray_compat=0 / constrained_intra=0 / bframes=3 / b_pyramid=2 / b_adapt=1 / b_bias=0 / direct=3 / weightb=1 / open_gop=0 / weightp=2 / keyint=240 / keyint_min=24 / scenecut=40 / intra_refresh=0 / rc_lookahead=50 / rc=2pass / mbtree=1 / bitrate=4869 / ratetol=1.0 / qcomp=0.60 / qpmin=0 / qpmax=69 / qpstep=4 / cplxblur=20.0 / qblur=0.5 / ip_ratio=1.40 / aq=1:1.00
Language                                 : English
Default                                  : Yes
Forced                                   : No

Audio
ID                                       : 2
Format                                   : AC-3
Format/Info                              : Audio Coding 3
Commercial name                          : Dolby Digital
Codec ID                                 : A_AC3
Duration                                 : 1 h 53 min
Bit rate mode                            : Constant
Bit rate                                 : 640 kb/s
Channel(s)                               : 6 channels
Channel layout                           : L R C LFE Ls Rs
Sampling rate                            : 48.0 kHz
Frame rate                               : 31.250 FPS (1536 SPF)
Bit depth                                : 16 bits
Compression mode                         : Lossy
Stream size                              : 520 MiB (12%)
Language                                 : Chinese
Service kind                             : Complete Main
Default                                  : Yes
Forced                                   : No

Text
ID                                       : 3
Format                                   : UTF-8
Codec ID                                 : S_TEXT/UTF8
Codec ID/Info                            : UTF-8 Plain Text
Duration                                 : 1 h 51 min
Bit rate                                 : 46 b/s
Count of elements                        : 1763
Stream size                              : 38.1 KiB (0%)
Title                                    : English
Language                                 : English
Default                                  : Yes
Forced                                   : Yes

Menu
00:00:00.000                             : en:00:00:00.000
00:03:25.208                             : en:00:03:25.208
00:11:11.833                             : en:00:11:11.833
00:17:09.542                             : en:00:17:09.542
00:22:34.333                             : en:00:22:34.333
00:27:28.875                             : en:00:27:28.875
00:32:41.792                             : en:00:32:41.792
00:39:40.375                             : en:00:39:40.375
00:44:06.250                             : en:00:44:06.250
00:51:18.792                             : en:00:51:18.792
00:55:43.583                             : en:00:55:43.583
01:01:23.042                             : en:01:01:23.042
01:06:39.542                             : en:01:06:39.542
01:12:47.083                             : en:01:12:47.083
01:18:40.625                             : en:01:18:40.625
01:25:44.417                             : en:01:25:44.417
01:30:25.125                             : en:01:30:25.125
01:34:38.750                             : en:01:34:38.750
01:39:58.333                             : en:01:39:58.333
01:45:26.792                             : en:01:45:26.792



                                                                                                                                                                                                        

                                                                                                                        
                                                                                                                                                                                                                                                         Girls.vs.Gangsters.2018.720p.BluRay.x264-REGRET.torrent (44.67 KB, 下载次数: 0)

回复

使用道具 举报

小黑屋|西西论坛

本网站所有资源来自网络,如无意中侵犯了您的权益,请发邮件至 [email protected],立即清除相关链接

GMT+8, 2019-6-16 12:44 , Processed in 0.059393 second(s), 23 queries .

Powered by Discuz! X3.2

© 2001-2013 Comsenz Inc.

快速回复 返回顶部 返回列表