西西论坛

 找回密码
 立即注册
搜索

[上下格式] [BT下载]勇敢者游戏:决战丛林[3D上下]1080p.3D.BluRay.Half-OU.x264.DTS-HD.MA.7.1-FG ...

[复制链接]
电影首发 发表于 2018-3-31 08:10:00 | 显示全部楼层 |阅读模式

译  名 勇敢者游戏:决战丛林/野蛮游戏:疯狂丛林(台)/逃出魔幻纪:丛林挑机(港)/新勇敢者的游戏/勇敢者的游戏
片  名 Jumanji: Welcome to the Jungle
年  代 2017
产  地 美国
类  别 动作/奇幻/冒险
语  言 英语
上映日期 2017-12-20(美国)/2018-01-12(中国大陆)
片  长 119分钟
导  演 杰克·卡斯丹 Jake Kasdan
主  演 道恩·强森 Dwayne Johnson
      凯文·哈特 Kevin Hart
      杰克·布莱克 Jack Black
      凯伦·吉兰 Karen Gillan
      尼克·乔纳斯 Nick Jonas
      瑞斯·达比 Rhys Darby
      鲍比·坎纳瓦尔 Bobby Cannavale
      亚历克斯·沃尔夫 Alex Wolff
      瑟达吕斯·布兰 Ser'Darius Blain
      麦迪森·伊瑟曼 Madison Iseman
      摩根·特纳 Morgan Turner
      梅森·古乔内 Mason Guccione
      马克·埃文·杰克逊 Marc Evan Jackson
      玛琳·辛科 Marin Hinkle
      特雷西·邦纳 Tracey Bonner
      玛莉贝丝·梦露 Maribeth Monroe
      米西·派勒 Missi Pyle
      杰米·雷内尔 Jamie Renell
      卡尔利斯·布克 Carlease Burke
      罗翰·昌德 Rohan Chand
      科林·汉克斯 Colin Hanks


简  介


  斯宾塞、“冰箱”弗里奇、贝瑟尼和玛莎是某高中的问题学生,这一日他们因不同的错误而被留校劳动。在一间堆满陈旧废弃物的储藏室内,斯宾塞发现一台年代久远的游戏机。四人原本想放松一下,谁知却被吸进了游戏机中。在凶险的尤曼吉热带丛林里,少男少女分别变成了勇石博士(道恩·强森 Dwayne Johnson 饰)、毛子·芬巴(凯文·哈特 Kevin Hart 饰)、奥伯伦教授(杰克·布莱克 Jack Black 饰)和铁拳露比(凯伦·吉兰 Karen Gillan 饰),他们必须遵照游戏规则,突破邪恶博士的阻挠,将宝石放回原处,恢复尤曼吉的和平,而这也是他们重返现实世界的唯一途径。
  毒蛇、猛兽以及纠缠不休的暴徒,为四个玩家带来了永生难忘的冒险体验……

  •                              : AVC
  • Format/Info                              : Advanced Video Codec
  • Format profile                           : Hig4.1
  • Format settings                          : CABAC / 3 Ref Frames
  • Format settings, CABAC                   : Yes
  • Format settings, ReFrames                : 3 frames
  • Codec ID                                 : V_MPEG4/ISO/AVC
  • Duration                                 : 1 h 59 min
  • Bit rate                                 : 16.0 Mb/s
  • Width                                    : 1 920 pixels
  • Height                                   : 1 080 pixels
  • Display aspect ratio                     : 16:9
  • Frame rate mode                          : Constant
  • Frame rate                               : 23.976 (24000/1001) FPS
  • Color space                              : YUV
  • Chroma subsampling                       : 4:2:0
  • Bit depth                                : 8 bits
  • Scan type                                : Progressive
  • Bits/(Pixel*Frame)                       : 0.322
  • Stream size                              : 13.2 GiB (54%)
  • Title                                    : Jumanji.Welcome.to.the.Jungle.2017.1080p.3D.BluRay.Half-OU.x264.DTS-HD.MA.7.1-FGT
  • Writing library                          : x264 core 148
  • Encoding settings                        : cabac=1 / ref=3 / deblock=1:-1:-1 / analyse=0x3:0 / me=hex / subme=5 / psy=1 / psy_rd=1.00:0.00 / mixed_ref=0 / me_range=16 / chroma_me=1 / trellis=1 / 8x8dct=1 / cqm=0 / deadzone=21,11 / fast_pskip=0 / chroma_qp_offset=0 / threads=24 / lookahead_threads=6 / sliced_threads=0 / nr=0 / decimate=1 / interlaced=0 / bluray_compat=0 / constrained_intra=0 / bframes=2 / b_pyramid=0 / b_adapt=1 / b_bias=0 / direct=1 / weightb=0 / open_gop=0 / weightp=0 / keyint=24 / keyint_min=2 / scenecut=40 / intra_refresh=0 / rc=abr / mbtree=0 / bitrate=16000 / ratetol=1.0 / qcomp=0.60 / qpmin=0 / qpmax=69 / qpstep=4 / ip_ratio=1.40 / pb_ratio=1.30 / aq=1:1.00
  • Default                                  : Yes
  • Forced                                   : No
  • Color range                              : Limited
  • Color primaries                          : BT.709
  • Transfer characteristics                 : BT.709
  • Matrix coefficients                      : BT.709
  • Audio #1
  • ID                                       : 2
  • Format                                   : DTS
  • Format/Info                              : Digital Theater Systems
  • Format profile                           : MA / Core
  • Codec ID                                 : A_DTS
  • Duration                                 : 1 h 59 min
  • Bit rate mode                            : Variable / Constant
  • Bit rate                                 : 3 840 kb/s / 1 509 kb/s
  • Channel(s)                               : 8 channels / 6 channels
  • Channel positions                        : Front: L C R, Side: L R, Back: L R, LFE / Front: L C R, Side: L R, LFE
  • Sampling rate                            : 48.0 kHz
  • Frame rate                               : 93.750 FPS (512 SPF)
  • Bit depth                                : 24 bits
  • Compression mode                         : Lossless / Lossy
  • Stream size                              : 3.23 GiB (13%)
  • Title                                    : Jumanji.Welcome.to.the.Jungle.2017.1080p.3D.BluRay.Half-OU.x264.DTS-HD.MA.7.1-FGT
  • Language                                 : English
  • Default                                  : No
  • Forced                                   : No
  • Audio #2
  • ID                                       : 3
  • Format                                   : DTS
  • Format/Info                              : Digital Theater Systems
  • Codec ID                                 : A_DTS
  • Duration                                 : 1 h 59 min
  • Bit rate mode                            : Constant
  • Bit rate                                 : 1 509 kb/s
  • Channel(s)                               : 6 channels
  • Channel positions                        : Front: L C R, Side: L R, LFE
  • Sampling rate                            : 48.0 kHz
  • Frame rate                               : 93.750 FPS (512 SPF)
  • Bit depth                                : 16 bits
  • Compression mode                         : Lossy
  • Stream size                              : 1.25 GiB (5%)
  • Title                                    : Jumanji.Welcome.to.the.Jungle.2017.1080p.3D.BluRay.Half-OU.x264.DTS-HD.MA.7.1-FGT
  • Language                                 : English
  • Default                                  : No
  • Forced                                   : No
  • Audio #3
  • ID                                       : 4
  • Format                                   : AC-3
  • Format/Info                              : Audio Coding 3
  • Codec ID                                 : A_AC3
  • Duration                                 : 1 h 59 min
  • Bit rate mode                            : Constant
  • Bit rate                                 : 640 kb/s
  • Channel(s)                               : 6 channels
  • Channel positions                        : Front: L C R, Side: L R, LFE
  • Sampling rate                            : 48.0 kHz
  • Frame rate                               : 31.250 FPS (1536 SPF)
  • Bit depth                                : 16 bits
  • Compression mode                         : Lossy
  • Stream size                              : 545 MiB (2%)
  • Title                                    : Jumanji.Welcome.to.the.Jungle.2017.1080p.3D.BluRay.Half-OU.x264.DTS-HD.MA.7.1-FGT
  • Language                                 : English
  • Service kind                             : Complete Main
  • Default                                  : No
  • Forced                                   : No



Jumanji.Welcome.to.the.Jungle.2017.1080p.3D.BluRay.Half-OU.x264.DTS-HD.MA.7.1-FG.torrent (61.3 KB, 下载次数: 0)

回复

使用道具 举报

小黑屋|西西论坛

本网站所有资源来自网络,如无意中侵犯了您的权益,请发邮件至 [email protected],立即清除相关链接

GMT+8, 2020-6-3 19:35 , Processed in 0.069627 second(s), 23 queries .

Powered by Discuz! X3.2

© 2001-2013 Comsenz Inc.

快速回复 返回顶部 返回列表