西西论坛

 找回密码
 立即注册
搜索

[喜剧片] [BT下载]帕丁顿熊2 Paddington.2.2017.720p.BluRay.x264.DTS-FGT 4.08GB

[复制链接]
电影首发 发表于 2018-3-9 08:43:00 | 显示全部楼层 |阅读模式

译  名 帕丁顿熊2/柏灵顿2(港)/柏灵顿熊熊出任务(台)

片  名 Paddington 2
年  代 2017
产  地 英国/法国/美国
类  别 喜剧/家庭
语  言 英语
上映日期 2017-11-10(英国)/2017-12-08(中国大陆)
IMDb评分  8.2/10 from 14,234 users
片  长 103分钟
导  演 保罗·金 Paul King
编  剧 保罗·金 Paul King / 迈克尔·邦德 Michael Bond / 西蒙·法纳比 Simon Farnaby
主  演 本·卫肖 Ben Whishaw
       休·格兰特 Hugh Grant
       休·博内威利 Hugh Bonneville
       莎莉·霍金斯 Sally Hawkins
       萨缪尔·乔斯林 Samuel Joslin
       马德琳·哈里斯 Madeleine Harris
       朱丽·沃特斯 Julie Walters
       布莱丹·格里森 Brendan Gleeson
       吉姆·布劳德本特 Jim Broadbent
       艾美达·斯丹顿 Imelda Staunton
       彼得·卡帕尔蒂 Peter Capaldi
       艾琳·阿特金斯 Eileen Atkins
       汤姆·康蒂 Tom Conti
       本·米勒 Ben Miller
       诺亚·泰勒 Noah Taylor
       理查德·艾欧阿德 Richard Ayoade


标  签 英国 | 喜剧 | 温情 | 动画 | 温馨 | 家庭 | 2017 | 伦敦


简  介


  露西婶婶(伊梅尔达·斯汤顿 Imelda Staunton 配音)的生日即将到来,帕丁顿(本·威士肖 Ben Whishaw 配音)决定送婶婶一份会让她终生难忘的礼物。最终,帕丁顿选中了一本立体绘本,然而这绘本是世间仅此一份的珍贵宝物,为了存钱购买绘本,帕丁顿决定开始工作,在遭遇了一连串的失败后,帕丁顿终于找到了适合他的工作——清洁玻璃窗。
  就在帕丁顿的存款即将达标之际,绘本竟然被一名神出鬼没的小偷给偷走了,同时出现在案发现场的帕丁顿被当做嫌疑犯捉拿归案,并最终被关进了监狱。在监狱里,帕丁顿凭借着自己的爱与勇气改变了墙内死气沉沉的氛围,监狱外,布朗一家人亦从来没有放弃过替帕丁顿洗清冤屈的机会。


获奖情况


  第71届英国电影学院奖 ?(2018)
  电影奖最佳英国影片(提名)
  电影奖最佳男配角(提名) 休·格兰特
  电影奖最佳改编剧本(提名) 保罗·金?/?西蒙·法纳比
  
  第4届豆瓣电影年度榜单 ?(2017)
  评分最高的欧洲电影(提名)
  评分最高的喜剧片
  12月最受关注电影(提名)
Video
ID                                       : 1
Format                                   : AVC
Format/Info                              : Advanced Video Codec
Format profile                           : Hig4.1
Format settings                          : CABAC / 5 Ref Frames
Format settings, CABAC                   : Yes
Format settings, ReFrames                : 5 frames
Codec ID                                 : V_MPEG4/ISO/AVC
Duration                                 : 1 h 43 min
Bit rate                                 : 4 141 kb/s
Width                                    : 1 280 pixels
Height                                   : 534 pixels
Display aspect ratio                     : 2.40:1
Frame rate mode                          : Constant
Frame rate                               : 24.000 FPS
Color space                              : YUV
Chroma subsampling                       : 4:2:0
Bit depth                                : 8 bits
Scan type                                : Progressive
Bits/(Pixel*Frame)                       : 0.252
Stream size                              : 2.99 GiB (73%)
Title                                    : Paddington.2.2017.720p.BluRay.x264.DTS-FGT
Writing library                          : x264 core 148 r2795M aaa9aa8
Encoding settings                        : cabac=1 / ref=5 / deblock=1:0:0 / analyse=0x3:0x133 / me=umh / subme=10 / psy=1 / psy_rd=1.00:0.00 / mixed_ref=1 / me_range=24 / chroma_me=1 / trellis=2 / 8x8dct=1 / cqm=0 / deadzone=21,11 / fast_pskip=1 / chroma_qp_offset=-2 / threads=24 / lookahead_threads=4 / sliced_threads=0 / nr=0 / decimate=1 / interlaced=0 / bluray_compat=0 / constrained_intra=0 / bframes=8 / b_pyramid=2 / b_adapt=2 / b_bias=0 / direct=3 / weightb=1 / open_gop=0 / weightp=2 / keyint=240 / keyint_min=24 / scenecut=40 / intra_refresh=0 / rc_lookahead=60 / rc=crf / mbtree=1 / crf=15.0 / qcomp=0.60 / qpmin=0 / qpmax=69 / qpstep=4 / ip_ratio=1.40 / aq=1:1.00
Language                                 : English
Default                                  : Yes
Forced                                   : No

Audio
ID                                       : 2
Format                                   : DTS
Format/Info                              : Digital Theater Systems
Codec ID                                 : A_DTS
Duration                                 : 1 h 43 min
Bit rate mode                            : Constant
Bit rate                                 : 1 509 kb/s
Channel(s)                               : 6 channels
Channel positions                        : Front: L C R, Side: L R, LFE
Sampling rate                            : 48.0 kHz
Frame rate                               : 93.750 FPS (512 SPF)
Bit depth                                : 16 bits
Compression mode                         : Lossy
Stream size                              : 1.09 GiB (27%)
Title                                    : Paddington.2.2017.720p.BluRay.x264.DTS-FGT
Language                                 : English
Default                                  : No
Forced                                   : No

Text
ID                                       : 3
Format                                   : UTF-8
Codec ID                                 : S_TEXT/UTF8
Codec ID/Info                            : UTF-8 Plain Text
Duration                                 : 1 h 39 min
Bit rate                                 : 67 b/s
Count of elements                        : 1454
Stream size                              : 49.0 KiB (0%)
Language                                 : English
Default                                  : Yes
Forced                                   : No





Paddington.2.2017.720p.BluRay.x264.DTS-FGT-[bt天堂 www.btbt4.com].torrent (82.13 KB, 下载次数: 0)

回复

使用道具 举报

小黑屋|西西论坛

本网站所有资源来自网络,如无意中侵犯了您的权益,请发邮件至 [email protected],立即清除相关链接

GMT+8, 2020-4-7 21:58 , Processed in 0.082006 second(s), 23 queries .

Powered by Discuz! X3.2

© 2001-2013 Comsenz Inc.

快速回复 返回顶部 返回列表