西西论坛

 找回密码
 立即注册
搜索

[喜剧片] [BT下载]今晚打丧尸[粤语/中字]Zombiology.2017.720p.BluRay.x264.DTS-FGT 5.12GB ...

[复制链接]
电影首发 发表于 2018-3-8 08:17:00 | 显示全部楼层 |阅读模式

译  名 今晚打丧尸/Zombiology: Enjoy Yourself Tonight

片  名 今晚打喪屍
年  代 2017
产  地 香港
类  别 喜剧/恐怖
语  言 粤语
上映日期 2017-06-29(香港)
IMDb评分  5.0/10 from 113 users
片  长 105分钟
导  演 卢炜麟 Alan Lo
编  剧 余咏良
主  演 张继聪 Louis Cheung
       白只 Michael Ning
       万梓良 Alex Man
       吴家丽 Carrie Ng
       王敏奕 Venus Wong
       颜卓灵 Cherry Ngan


标  签 香港 | 丧尸 | 香港电影 | 僵尸 | 2017 | 电影 | 黑色喜剧 | 喜剧


简  介


  郑思杰监制,卢炜麟执导的《今晚打僵尸》则是港味十足的喜剧,将主攻香港本土市场,不会在内地公映。由白只、张继聪主演的《今晚打僵尸》则是一部惊悚题材的喜剧,该片根据余咏良的畅销小说改编而成。

Video
ID                                       : 1
Format                                   : AVC
Format/Info                              : Advanced Video Codec
Format profile                           : Hig4.1
Format settings                          : CABAC / 4 Ref Frames
Format settings, CABAC                   : Yes
Format settings, ReFrames                : 4 frames
Codec ID                                 : V_MPEG4/ISO/AVC
Duration                                 : 1 h 46 min
Bit rate                                 : 5 500 kb/s
Width                                    : 1 280 pixels
Height                                   : 536 pixels
Display aspect ratio                     : 2.40:1
Frame rate mode                          : Constant
Frame rate                               : 24.000 FPS
Color space                              : YUV
Chroma subsampling                       : 4:2:0
Bit depth                                : 8 bits
Scan type                                : Progressive
Bits/(Pixel*Frame)                       : 0.334
Stream size                              : 3.99 GiB (78%)
Title                                    : Zombiology.2017.CHINESE.720p.BluRay.x264.DTS-FGT
Writing library                          : x264 core 148 r2795M aaa9aa8
Encoding settings                        : cabac=1 / ref=4 / deblock=1:-2:-2 / analyse=0x3:0x113 / me=umh / subme=9 / psy=1 / psy_rd=1.00:0.15 / mixed_ref=1 / me_range=16 / chroma_me=1 / trellis=2 / 8x8dct=1 / cqm=0 / deadzone=21,11 / fast_pskip=1 / chroma_qp_offset=-3 / threads=24 / lookahead_threads=3 / sliced_threads=0 / nr=0 / decimate=1 / interlaced=0 / bluray_compat=0 / constrained_intra=0 / bframes=3 / b_pyramid=2 / b_adapt=2 / b_bias=0 / direct=3 / weightb=1 / open_gop=0 / weightp=2 / keyint=250 / keyint_min=25 / scenecut=40 / intra_refresh=0 / rc_lookahead=50 / rc=abr / mbtree=1 / bitrate=5500 / ratetol=1.0 / qcomp=0.60 / qpmin=0 / qpmax=69 / qpstep=4 / vbv_maxrate=31250 / vbv_bufsize=31250 / nal_hrd=none / filler=0 / ip_ratio=1.40 / aq=1:1.00
Language                                 : Chinese
Default                                  : Yes
Forced                                   : No


Audio
ID                                       : 2
Format                                   : DTS
Format/Info                              : Digital Theater Systems
Codec ID                                 : A_DTS
Duration                                 : 1 h 46 min
Bit rate mode                            : Constant
Bit rate                                 : 1 509 kb/s
Channel(s)                               : 6 channels
Channel positions                        : Front: L C R, Side: L R, LFE
Sampling rate                            : 48.0 kHz
Frame rate                               : 93.750 FPS (512 SPF)
Bit depth                                : 16 bits
Compression mode                         : Lossy
Stream size                              : 1.12 GiB (22%)
Title                                    : Zombiology.2017.CHINESE.720p.BluRay.x264.DTS-FGT
Language                                 : Chinese
Default                                  : Yes
Forced                                   : No


Text
ID                                       : 3
Format                                   : UTF-8
Codec ID                                 : S_TEXT/UTF8
Codec ID/Info                            : UTF-8 Plain Text
Duration                                 : 1 h 40 min
Bit rate                                 : 39 b/s
Count of elements                        : 1335
Stream size                              : 29.2 KiB (0%)
Title                                    : English
Language                                 : English
Default                                  : Yes
Forced                                   : Yes







Zombiology.2017.720p.BluRay.x264.DTS-FGT-[bt天堂 www.btbt4.com].torrent (51.77 KB, 下载次数: 0)

回复

使用道具 举报

小黑屋|西西论坛

本网站所有资源来自网络,如无意中侵犯了您的权益,请发邮件至 [email protected],立即清除相关链接

GMT+8, 2020-4-4 20:37 , Processed in 0.062448 second(s), 23 queries .

Powered by Discuz! X3.2

© 2001-2013 Comsenz Inc.

快速回复 返回顶部 返回列表