西西论坛

 找回密码
 立即注册
搜索

[喜剧片] [BT下载]Elements.of.Matter.2018.720p.BluRay.x264.DTS-FGT 4.48GB

[复制链接]
电影首发 发表于 2018-2-23 08:04:00 | 显示全部楼层 |阅读模式

译  名 
片  名 elements-of-matter
年  代 2018
产  地 美国
类  别 喜剧/爱情/家庭
语  言 英语
上映日期 2018-02-27(美国)
片  长 97分钟
导  演 Assaf Ben Shetrit
主  演 迪兰·科宁 Dylan Kenin
      霍莉·范恩 Holley Fain
      Cassi Colvin
      Shaughn Buchholz
      Batia Parnass
      Cat Ventura
      Ben Wise


简  介


  Elements of Matter is about a famous actress who has a nervous breakdown during a junket for a new franchise film. She asks a complete stranger (who mistakenlythinks he's rented her family's house)| to pretend to be her boyfriend for the holidays and spend it with her eccentric family.


Video
ID                                       : 1
Format                                   : AVC
Format/Info                              : Advanced Video Codec
Format profile                           : [email protected]
Format settings                          : CABAC / 4 Ref Frames
Format settings, CABAC                   : Yes
Format settings, ReFrames                : 4 frames
Codec ID                                 : V_MPEG4/ISO/AVC
Duration                                 : 1 h 32 min
Bit rate                                 : 5 500 kb/s
Width                                    : 1 280 pixels
Height                                   : 534 pixels
Display aspect ratio                     : 2.40:1
Original display aspect ratio            : 2.40:1
Frame rate mode                          : Constant
Frame rate                               : 23.976 (24000/1001) FPS
Color space                              : YUV
Chroma subsampling                       : 4:2:0
Bit depth                                : 8 bits
Scan type                                : Progressive
Bits/(Pixel*Frame)                       : 0.336
Stream size                              : 3.50 GiB (78%)
Title                                    : Elements.of.Matter.2018.720p.BluRay.x264.DTS-FGT
Writing library                          : x264 core 148 r2795M aaa9aa8
Encoding settings                        : cabac=1 / ref=4 / deblock=1:-2:-2 / analyse=0x3:0x113 / me=umh / subme=9 / psy=1 / psy_rd=1.00:0.15 / mixed_ref=1 / me_range=16 / chroma_me=1 / trellis=2 / 8x8dct=1 / cqm=0 / deadzone=21,11 / fast_pskip=1 / chroma_qp_offset=-3 / threads=24 / lookahead_threads=3 / sliced_threads=0 / nr=0 / decimate=1 / interlaced=0 / bluray_compat=0 / constrained_intra=0 / bframes=3 / b_pyramid=2 / b_adapt=2 / b_bias=0 / direct=3 / weightb=1 / open_gop=0 / weightp=2 / keyint=250 / keyint_min=25 / scenecut=40 / intra_refresh=0 / rc_lookahead=50 / rc=abr / mbtree=1 / bitrate=5500 / ratetol=1.0 / qcomp=0.60 / qpmin=0 / qpmax=69 / qpstep=4 / vbv_maxrate=31250 / vbv_bufsize=31250 / nal_hrd=none / filler=0 / ip_ratio=1.40 / aq=1:1.00
Language                                 : English
Default                                  : Yes
Forced                                   : No

Audio
ID                                       : 2
Format                                   : DTS
Format/Info                              : Digital Theater Systems
Codec ID                                 : A_DTS
Duration                                 : 1 h 32 min
Bit rate mode                            : Constant
Bit rate                                 : 1 509 kb/s
Channel(s)                               : 6 channels
Channel positions                        : Front: L C R, Side: L R, LFE
Sampling rate                            : 48.0 kHz
Frame rate                               : 93.750 FPS (512 SPF)
Bit depth                                : 24 bits
Compression mode                         : Lossy
Stream size                              : 1 003 MiB (22%)
Title                                    : Elements.of.Matter.2018.720p.BluRay.x264.DTS-FGT
Language                                 : English
Default                                  : No
Forced                                   : No

Text
ID                                       : 3
Format                                   : UTF-8
Codec ID                                 : S_TEXT/UTF8
Codec ID/Info                            : UTF-8 Plain Text
Duration                                 : 1 h 30 min
Bit rate                                 : 56 b/s
Count of elements                        : 1338
Stream size                              : 37.4 KiB (0%)
Language                                 : English
Default                                  : Yes
Forced                                   : No

Menu
00:00:00.000                             : en:Chapter 01
00:08:25.087                             : en:Chapter 02
00:17:17.327                             : en:Chapter 03
00:27:13.548                             : en:Chapter 04
00:40:45.234                             : en:Chapter 05
00:51:58.657                             : en:Chapter 06
01:02:32.749                             : en:Chapter 07
01:12:21.545                             : en:Chapter 08
01:21:42.522                             : en:Chapter 09
01:32:55.987                             : en:Chapter 10







Elements.of.Matter.2018.720p.BluRay.x264.DTS-FGT[bt天堂 www.btbt4.com].torrent (90.13 KB, 下载次数: 0)

回复

使用道具 举报

小黑屋|西西论坛

本网站所有资源来自网络,如无意中侵犯了您的权益,请发邮件至 [email protected],立即清除相关链接

GMT+8, 2020-4-7 23:09 , Processed in 0.089096 second(s), 23 queries .

Powered by Discuz! X3.2

© 2001-2013 Comsenz Inc.

快速回复 返回顶部 返回列表