西西论坛

 找回密码
 立即注册
搜索

[动作片] [BT下载]狂兽[国粤中字]The.Brink.2017.720p.BluRay.x264-WiKi 7.46GB

[复制链接]
电影首发 发表于 2018-2-11 07:39:00 | 显示全部楼层 |阅读模式

译  名 狂兽
片  名 狂獸
年  代 2017
产  地 香港/中国大陆
类  别 剧情/动作/犯罪
语  言 汉语普通话/粤语
上映日期 2017-11-10(中国大陆)
片  长 100分钟
导  演 李子俊 Jonathan Li
主  演 张晋 Max Zhang
      余文乐 Shawn Yue
      文咏珊 Janice Man
      吴樾 Yue Wu
      林家栋 Ka Tung Lam
      太保 Po Tai
      苏丽珊 Cecilia So
      曾国祥 Derek Tsang
      灰熊 Kumer
      郑紫平 Ziping Zheng
      仓田保昭 Yasuaki Kurata


简  介


  重案督察西狗(张晋 饰)与搭档阿德(吴樾 饰)到某渔村追捕涉嫌多桩凶案的歹徒江贵成,却意外发现大量被虐杀的帮派分子尸体和数额惊人的黑市黄金,一场各怀鬼胎的混战因西狗和阿德的闯入变成了整个江湖针对两个警察的困兽之斗,随着调查,西狗发现拥有超高犯罪才智的江贵成竟然嚣张到要借十号风球的天威,谋划跨国掠夺一批价值超过五亿的海底黑金,自己和阿德竟也成了他计划中的棋子,不仅得不到警方支援还被通缉,就在此时,阿德被帮派绑架为人质,贵成已经出海,西狗必须独闯狂风怒海,当狂性被绝境激发,当兽性被贪欲操控,真相和善恶哪个更重?唯有血战八方才能力挽狂澜!


获奖情况


  第37届香港电影金像奖  (2018)
  最佳动作设计(提名) 李忠志
  新晋导演(提名) 李子俊


Video
ID                                       : 1
Format                                   : AVC
Format/Info                              : Advanced Video Codec
Format profile                           : [email protected]
Format settings                          : CABAC / 12 Ref Frames
Format settings, CABAC                   : Yes
Format settings, ReFrames                : 12 frames
Codec ID                                 : V_MPEG4/ISO/AVC
Duration                                 : 1 h 39 min
Bit rate                                 : 9 478 kb/s
Width                                    : 1 280 pixels
Height                                   : 544 pixels
Display aspect ratio                     : 2.35:1
Frame rate mode                          : Constant
Frame rate                               : 24.000 FPS
Color space                              : YUV
Chroma subsampling                       : 4:2:0
Bit depth                                : 8 bits
Scan type                                : Progressive
Bits/(Pixel*Frame)                       : 0.567
Stream size                              : 6.57 GiB (88%)
Writing library                          : x264 core 155 r2867+74 66b5600 t_mod_Custom_2 [[email protected] X86_64]
Encoding settings                        : cabac=1 / ref=12 / deblock=1:-3:-3 / analyse=0x3:0x133 / me=umh / subme=10 / psy=1 / fade_compensate=0.00 / psy_rd=1.00:0.00 / mixed_ref=1 / me_range=32 / chroma_me=1 / trellis=2 / 8x8dct=1 / cqm=0 / deadzone=21,11 / fast_pskip=0 / chroma_qp_offset=-2 / threads=17 / lookahead_threads=2 / sliced_threads=0 / nr=0 / decimate=0 / interlaced=0 / bluray_compat=0 / constrained_intra=0 / fgo=0 / bframes=7 / b_pyramid=2 / b_adapt=2 / b_bias=0 / direct=3 / weightb=1 / open_gop=0 / weightp=2 / keyint=250 / keyint_min=24 / scenecut=40 / intra_refresh=0 / rc_lookahead=60 / rc=crf / mbtree=0 / crf=14.1000 / qcomp=0.60 / qpmin=0:0:0 / qpmax=69:69:69 / qpstep=4 / vbv_maxrate=62500 / vbv_bufsize=78125 / crf_max=0.0 / nal_hrd=none / filler=0 / ip_ratio=1.30 / pb_ratio=1.20 / aq=3:0.85 / aq-sensitivity=10.00 / aq-factor=1.00:1.00:1.00 / aq2=0 / aq3=0 / zones=23,273,crf=13/635,994,crf=11/1858,1884,crf=12/19866,20075,crf=12/20223,20479,crf=12/25004,25099,crf=13/39445,39938,crf=12/41832,41903,crf=13/42106,42240,crf=13/70947,71409,crf=14/72510,72967,crf=12/73534,73888,crf=12/88739,88987,crf=13/120667,120785,crf=12/133396,133474,crf=13/138112,142925,b=0.2
Default                                  : Yes
Forced                                   : No

Audio #1
ID                                       : 2
Format                                   : AC-3
Format/Info                              : Audio Coding 3
Codec ID                                 : A_AC3
Duration                                 : 1 h 39 min
Bit rate mode                            : Constant
Bit rate                                 : 640 kb/s
Channel(s)                               : 6 channels
Channel positions                        : Front: L C R, Side: L R, LFE
Sampling rate                            : 48.0 kHz
Frame rate                               : 31.250 FPS (1536 SPF)
Bit depth                                : 16 bits
Compression mode                         : Lossy
Stream size                              : 454 MiB (6%)
Title                                    : Mandarin
Language                                 : Chinese
Service kind                             : Complete Main
Default                                  : No
Forced                                   : No

Audio #2
ID                                       : 3
Format                                   : AC-3
Format/Info                              : Audio Coding 3
Codec ID                                 : A_AC3
Duration                                 : 1 h 39 min
Bit rate mode                            : Constant
Bit rate                                 : 640 kb/s
Channel(s)                               : 6 channels
Channel positions                        : Front: L C R, Side: L R, LFE
Sampling rate                            : 48.0 kHz
Frame rate                               : 31.250 FPS (1536 SPF)
Bit depth                                : 16 bits
Compression mode                         : Lossy
Stream size                              : 454 MiB (6%)
Title                                    : Cantonese
Language                                 : Chinese
Service kind                             : Complete Main
Default                                  : No
Forced                                   : No

Text #1
ID                                       : 4
Format                                   : UTF-8
Codec ID                                 : S_TEXT/UTF8
Codec ID/Info                            : UTF-8 Plain Text
Duration                                 : 1 h 28 min
Bit rate                                 : 17 b/s
Count of elements                        : 558
Stream size                              : 11.2 KiB (0%)
Title                                    : chs
Language                                 : Chinese
Default                                  : No
Forced                                   : No

Text #2
ID                                       : 5
Format                                   : UTF-8
Codec ID                                 : S_TEXT/UTF8
Codec ID/Info                            : UTF-8 Plain Text
Duration                                 : 1 h 28 min
Bit rate                                 : 17 b/s
Count of elements                        : 558
Stream size                              : 11.2 KiB (0%)
Title                                    : cht
Language                                 : Chinese
Default                                  : No
Forced                                   : No

Menu
00:00:00.000                             : en:00:00:00.000
00:07:36.042                             : en:00:07:36.042
00:10:43.250                             : en:00:10:43.250
00:18:02.167                             : en:00:18:02.167
00:24:28.042                             : en:00:24:28.042
00:27:17.833                             : en:00:27:17.833
00:30:08.708                             : en:00:30:08.708
00:34:08.625                             : en:00:34:08.625
00:37:09.750                             : en:00:37:09.750
00:44:45.083                             : en:00:44:45.083
00:49:11.167                             : en:00:49:11.167
00:56:26.958                             : en:00:56:26.958
00:59:27.417                             : en:00:59:27.417
01:04:39.750                             : en:01:04:39.750
01:10:04.375                             : en:01:10:04.375
01:17:25.167                             : en:01:17:25.167
01:22:13.333                             : en:01:22:13.333
01:25:31.292                             : en:01:25:31.292
01:31:53.167                             : en:01:31:53.167
01:35:56.625                             : en:01:35:56.625








The.Brink.2017.720p.BluRay.x264-WiKi[bt天堂 www.btbt4.com].torrent (75.1 KB, 下载次数: 0)

回复

使用道具 举报

小黑屋|西西论坛

本网站所有资源来自网络,如无意中侵犯了您的权益,请发邮件至 [email protected],立即清除相关链接

GMT+8, 2020-4-7 22:56 , Processed in 0.074701 second(s), 23 queries .

Powered by Discuz! X3.2

© 2001-2013 Comsenz Inc.

快速回复 返回顶部 返回列表