西西论坛

 找回密码
 立即注册
搜索

[上下格式] [BT下载]怪物史瑞克3[3D上下]2007.1080p.3D.BluRay.Half-OU.x264.TrueHD.7.1-FGT 17GB ...

[复制链接]
电影首发 发表于 2017-6-21 10:02:00 | 显示全部楼层 |阅读模式

译  名 怪物史瑞克3/怪物史莱克3/史瑞克3/史力加3/史力加之咁就三世
片  名 Shrek the Third
年  代 2007
产  地 美国
类  别 动画/冒险/喜剧/家庭/奇幻
语  言 英语
上映日期 2007-05-18(美国)/2007-08-24(中国大陆)
IMDb评分  6.1/10 from 225,748 users
  
豆瓣评分 7.2/10 from 44,957 users
 
西西电影网 http://www.xixi16.com
片  长 93 分钟
导  演 克里斯·米勒 Chris Miller / 许诚毅 Raman Hui
主  演 麦克·梅尔斯 Mike Myers
      艾迪·墨菲 Eddie Murphy
      卡梅隆·迪亚茨 Cameron Diaz
      安东尼奥·班德拉斯 Antonio Banderas
      鲁伯特·艾弗雷特 Rupert Everett
      贾斯汀·汀布莱克 Justin Timberlake
      朱丽·安德鲁斯 Julie Andrews
      约翰·克立斯 John Cleese
      拉里·金 Larry King


简  介


  怪物王子和恐龙公主的故事在继续。
  史莱克原以为可以和费奥娜在沼泽地过上自由散漫的生活,谁知道费奥娜的父亲,变成青蛙的“遥远王国”国王病重,史莱克和费奥娜不得不放弃自由,继承王国。
  对史莱克而言,“祸不单行”:费奥娜怀孕了,显然他没有做好当爸爸的准备。因为不想继承王国,也因为即将出生的小怪物,史莱克带着话痨驴子和穿靴子的猫,一同去找菲奥娜的远方堂弟亚蒂,在他们的软磨硬泡之下,懒散的亚蒂终于答应接过王位这个烫手山芋,四人开始了热闹非凡的回国之旅。
  与此同时,在国内陪伴父母的费奥娜公主也遇上了不小的麻烦,大反派“魅力王子”纠结了一帮海盗卷土重来,阴谋篡位,费奥娜组织了一支妇女自救队,童话中的公主、母后们悉数上场,展开了搞笑连连的正义之战,及时赶王国的史莱克一行四人,也参加到了队伍中,“另类”大决战的序幕也就此拉开。


获奖情况


  第35届动画安妮奖  (2008)
  最佳导演(提名) 克里斯·米勒 / 许诚毅




Video
ID                                       : 1
Format                                   : AVC
Format/Info                              : Advanced Video Codec
Format profile                           :
Format settings, CABAC                   : Yes
Format settings, ReFrames                : 2 frames
Codec ID                                 : V_MPEG4/ISO/AVC
Duration                                 : 1 h 32 min
Nominal bit rate                         : 16.0 Mb/s
Width                                    : 1 920 pixels
Height                                   : 1 080 pixels
Display aspect ratio                     : 16:9
Frame rate mode                          : Constant
Frame rate                               : 23.976 (24000/1001) FPS
Color space                              : YUV
Chroma subsampling                       : 4:2:0
Bit depth                                : 8 bits
Scan type                                : Progressive
Bits/(Pixel*Frame)                       : 0.322
Title                                    : Shrek.the.Third.2007.1080p.3D.BluRay.Half-OU.x264.TrueHD.7.1-FGT
Writing library                          : x264 core 142
Encoding settings                        : cabac=1 / ref=1 / deblock=1:-1:-1 / analyse=0x3:0 / me=hex / subme=5 / psy=0 / mixed_ref=0 / me_range=16 / chroma_me=1 / trellis=0 / 8x8dct=1 / cqm=0 / deadzone=21,11 / fast_pskip=0 / chroma_qp_offset=0 / threads=8 / lookahead_threads=2 / sliced_threads=0 / nr=0 / decimate=1 / interlaced=0 / bluray_compat=0 / constrained_intra=0 / bframes=2 / b_pyramid=0 / b_adapt=1 / b_bias=0 / direct=1 / weightb=0 / open_gop=0 / weightp=0 / keyint=24 / keyint_min=13 / scenecut=40 / intra_refresh=0 / rc=2pass / mbtree=0 / bitrate=16000 / ratetol=1.0 / qcomp=0.60 / qpmin=0 / qpmax=69 / qpstep=4 / cplxblur=20.0 / qblur=0.5 / ip_ratio=1.40 / pb_ratio=1.30 / aq=1:1.00
Default                                  : Yes
Forced                                   : No
Color range                              : Limited
Color primaries                          : BT.709
Transfer characteristics                 : BT.709
Matrix coefficients                      : BT.709


Audio #1
ID                                       : 2
Format                                   : TrueHD
Codec ID                                 : A_TRUEHD
Duration                                 : 1 h 32 min
Bit rate mode                            : Variable
Maximum bit rate                         : 4 839 kb/s
Channel(s)                               : 8 channels
Channel positions                        : Front: L C R, Side: L R, Back: L R, LFE
Sampling rate                            : 48.0 kHz
Frame rate                               : 1 200.000 FPS (40 spf)
Compression mode                         : Lossless
Title                                    : Shrek.the.Third.2007.1080p.3D.BluRay.Half-OU.x264.TrueHD.7.1-FGT
Language                                 : English
Default                                  : Yes
Forced                                   : No


Audio #2
ID                                       : 3
Format                                   : AC-3
Format/Info                              : Audio Coding 3
Format settings, Endianness              : Big
Codec ID                                 : A_AC3
Duration                                 : 1 h 32 min
Bit rate mode                            : Constant
Bit rate                                 : 640 kb/s
Channel(s)                               : 6 channels
Channel positions                        : Front: L C R, Side: L R, LFE
Sampling rate                            : 48.0 kHz
Frame rate                               : 31.250 FPS (1536 spf)
Bit depth                                : 16 bits
Compression mode                         : Lossy
Stream size                              : 424 MiB (2%)
Title                                    : Shrek.the.Third.2007.1080p.3D.BluRay.Half-OU.x264.TrueHD.7.1-FGT
Language                                 : English
Service kind                             : Complete Main
Default                                  : No
Forced                                   : No


Audio #3
ID                                       : 4
Format                                   : AC-3
Format/Info                              : Audio Coding 3
Format settings, Endianness              : Big
Codec ID                                 : A_AC3
Duration                                 : 1 h 32 min
Bit rate mode                            : Constant
Bit rate                                 : 640 kb/s
Channel(s)                               : 6 channels
Channel positions                        : Front: L C R, Side: L R, LFE
Sampling rate                            : 48.0 kHz
Frame rate                               : 31.250 FPS (1536 spf)
Bit depth                                : 16 bits
Compression mode                         : Lossy
Stream size                              : 424 MiB (2%)
Title                                    : Shrek.the.Third.2007.1080p.3D.BluRay.Half-OU.x264.TrueHD.7.1-FGT
Language                                 : German
Service kind                             : Complete Main
Default                                  : No
Forced                                   : No


Audio #4
ID                                       : 5
Format                                   : AC-3
Format/Info                              : Audio Coding 3
Format settings, Endianness              : Big
Codec ID                                 : A_AC3
Duration                                 : 1 h 32 min
Bit rate mode                            : Constant
Bit rate                                 : 640 kb/s
Channel(s)                               : 6 channels
Channel positions                        : Front: L C R, Side: L R, LFE
Sampling rate                            : 48.0 kHz
Frame rate                               : 31.250 FPS (1536 spf)
Bit depth                                : 16 bits
Compression mode                         : Lossy
Stream size                              : 424 MiB (2%)
Title                                    : Shrek.the.Third.2007.1080p.3D.BluRay.Half-OU.x264.TrueHD.7.1-FGT
Language                                 : Spanish
Service kind                             : Complete Main
Default                                  : No
Forced                                   : No


Audio #5
ID                                       : 6
Format                                   : AC-3
Format/Info                              : Audio Coding 3
Format settings, Endianness              : Big
Codec ID                                 : A_AC3
Duration                                 : 1 h 32 min
Bit rate mode                            : Constant
Bit rate                                 : 640 kb/s
Channel(s)                               : 6 channels
Channel positions                        : Front: L C R, Side: L R, LFE
Sampling rate                            : 48.0 kHz
Frame rate                               : 31.250 FPS (1536 spf)
Bit depth                                : 16 bits
Compression mode                         : Lossy
Stream size                              : 424 MiB (2%)
Title                                    : Shrek.the.Third.2007.1080p.3D.BluRay.Half-OU.x264.TrueHD.7.1-FGT
Language                                 : French
Service kind                             : Complete Main
Default                                  : No
Forced                                   : No


Audio #6
ID                                       : 7
Format                                   : AC-3
Format/Info                              : Audio Coding 3
Format settings, Endianness              : Big
Codec ID                                 : A_AC3
Duration                                 : 1 h 32 min
Bit rate mode                            : Constant
Bit rate                                 : 640 kb/s
Channel(s)                               : 6 channels
Channel positions                        : Front: L C R, Side: L R, LFE
Sampling rate                            : 48.0 kHz
Frame rate                               : 31.250 FPS (1536 spf)
Bit depth                                : 16 bits
Compression mode                         : Lossy
Stream size                              : 424 MiB (2%)
Title                                    : Shrek.the.Third.2007.1080p.3D.BluRay.Half-OU.x264.TrueHD.7.1-FGT
Language                                 : Italian
Service kind                             : Complete Main
Default                                  : No
Forced                                   : No


Audio #7
ID                                       : 8
Format                                   : AC-3
Format/Info                              : Audio Coding 3
Format settings, Endianness              : Big
Codec ID                                 : A_AC3
Duration                                 : 1 h 32 min
Bit rate mode                            : Constant
Bit rate                                 : 640 kb/s
Channel(s)                               : 6 channels
Channel positions                        : Front: L C R, Side: L R, LFE
Sampling rate                            : 48.0 kHz
Frame rate                               : 31.250 FPS (1536 spf)
Bit depth                                : 16 bits
Compression mode                         : Lossy
Stream size                              : 424 MiB (2%)
Title                                    : Shrek.the.Third.2007.1080p.3D.BluRay.Half-OU.x264.TrueHD.7.1-FGT
Language                                 : Korean
Service kind                             : Complete Main
Default                                  : No
Forced                                   : No


Audio #8
ID                                       : 9
Format                                   : AC-3
Format/Info                              : Audio Coding 3
Format settings, Endianness              : Big
Codec ID                                 : A_AC3
Duration                                 : 1 h 32 min
Bit rate mode                            : Constant
Bit rate                                 : 640 kb/s
Channel(s)                               : 6 channels
Channel positions                        : Front: L C R, Side: L R, LFE
Sampling rate                            : 48.0 kHz
Frame rate                               : 31.250 FPS (1536 spf)
Bit depth                                : 16 bits
Compression mode                         : Lossy
Stream size                              : 424 MiB (2%)
Title                                    : Shrek.the.Third.2007.1080p.3D.BluRay.Half-OU.x264.TrueHD.7.1-FGT
Language                                 : Chinese
Service kind                             : Complete Main
Default                                  : No
Forced                                   : No


Audio #9
ID                                       : 10
Format                                   : AC-3
Format/Info                              : Audio Coding 3
Format settings, Endianness              : Big
Codec ID                                 : A_AC3
Duration                                 : 1 h 32 min
Bit rate mode                            : Constant
Bit rate                                 : 640 kb/s
Channel(s)                               : 6 channels
Channel positions                        : Front: L C R, Side: L R, LFE
Sampling rate                            : 48.0 kHz
Frame rate                               : 31.250 FPS (1536 spf)
Bit depth                                : 16 bits
Compression mode                         : Lossy
Stream size                              : 424 MiB (2%)
Title                                    : Shrek.the.Third.2007.1080p.3D.BluRay.Half-OU.x264.TrueHD.7.1-FGT
Language                                 : Dutch
Service kind                             : Complete Main
Default                                  : No
Forced                                   : No


Audio #10
ID                                       : 11
Format                                   : AC-3
Format/Info                              : Audio Coding 3
Format settings, Endianness              : Big
Codec ID                                 : A_AC3
Duration                                 : 1 h 32 min
Bit rate mode                            : Constant
Bit rate                                 : 640 kb/s
Channel(s)                               : 6 channels
Channel positions                        : Front: L C R, Side: L R, LFE
Sampling rate                            : 48.0 kHz
Frame rate                               : 31.250 FPS (1536 spf)
Bit depth                                : 16 bits
Compression mode                         : Lossy
Stream size                              : 424 MiB (2%)
Title                                    : Shrek.the.Third.2007.1080p.3D.BluRay.Half-OU.x264.TrueHD.7.1-FGT
Language                                 : Portuguese
Service kind                             : Complete Main
Default                                  : No
Forced                                   : No


Audio #11
ID                                       : 12
Format                                   : AC-3
Format/Info                              : Audio Coding 3
Format settings, Endianness              : Big
Codec ID                                 : A_AC3
Duration                                 : 1 h 32 min
Bit rate mode                            : Constant
Bit rate                                 : 640 kb/s
Channel(s)                               : 6 channels
Channel positions                        : Front: L C R, Side: L R, LFE
Sampling rate                            : 48.0 kHz
Frame rate                               : 31.250 FPS (1536 spf)
Bit depth                                : 16 bits
Compression mode                         : Lossy
Stream size                              : 424 MiB (2%)
Title                                    : Shrek.the.Third.2007.1080p.3D.BluRay.Half-OU.x264.TrueHD.7.1-FGT
Language                                 : Russian
Service kind                             : Complete Main
Default                                  : No
Forced                                   : No









Shrek.the.Third.2007.1080p.3D.BluRay.Half-OU.x264.TrueHD.7.1-FGT[bt天堂 www.btbt4.com].torrent (86.19 KB, 下载次数: 0)

回复

使用道具 举报

小黑屋|西西论坛

本网站所有资源来自网络,如无意中侵犯了您的权益,请发邮件至 [email protected],立即清除相关链接

GMT+8, 2020-6-3 17:31 , Processed in 0.067386 second(s), 23 queries .

Powered by Discuz! X3.2

© 2001-2013 Comsenz Inc.

快速回复 返回顶部 返回列表