西西论坛

 找回密码
 立即注册
搜索

[上下格式] [BT下载]了不起的盖茨比[3D上下]2013.1080p.3D.BluRay.Half-OU.x264.DTS-HD.MA.5.1-FG ...

[复制链接]
电影首发 发表于 2017-6-21 10:02:00 | 显示全部楼层 |阅读模式

译  名 了不起的盖茨比/大亨小传(港/台)
片  名 The Great Gatsby
年  代 2013
产  地 澳大利亚/美国
类  别 剧情/爱情
语  言 英语/法语
上映日期 2013-05-01(纽约首映)/2013-05-10(美国)/2013-08-30(中国大陆)
IMDb评分  7.3/10 from 387,815 users
  
豆瓣评分 7.7/10 from 251,423 users
 
西西电影网 http://www.xixi16.com
片  长 143分钟(美国)/141分钟(中国大陆)
导  演 巴兹·鲁赫曼 Baz Luhrmann
主  演 莱昂纳多·迪卡普里奥 Leonardo DiCaprio
      凯瑞·穆里根 Carey Mulligan
      托比·马奎尔 Tobey Maguire
      艾拉·菲舍尔 Isla Fisher
      乔尔·埃哲顿 Joel Edgerton
      卡兰·麦克奥利菲 Callan McAuliffe
      阿米特巴·巴赫卡安 Amitabh Bachchan
      杰森·克拉科 Jason Clarke
      伊丽莎白·戴碧科 Elizabeth Debick
      嘉玛·沃德 Gemma Ward


简  介


  1922年的春天,作家尼克(托比•马奎尔 Tobey Maguire 饰)满怀希望离开家乡,随淘金热潮来到纽约这个新兴的城市,虽然这里爵士乐流行,股票飞涨,但是贫富两极分化,人们沉沦在纸醉金迷中。尼克为了追寻美国梦,放弃写作而进入证券市场,并搬入纽约附近的海湾居住,成为了神秘富豪盖茨比(莱昂纳多•迪卡普里奥 Leonardo DiCaprio 饰)的邻居。而海湾的对岸住着尼克的表妹黛西(凯瑞•穆里根 Carey Mulligan 饰)和她的贵族丈夫汤姆(乔尔•埃哲顿 Joel Edgerton 饰),尼克不仅被邀请去赴宴,之后汤姆还带着他去找情妇寻欢,尼克渐渐迷失在这个充满魅力,以及富豪编制的假象、爱与谎言的世界中。
  但是只有盖茨比最特别,他是唯一让尼克感到在这个迷失城市里充满希望的人。尼克被邀请参加了盖茨比豪宅中的盛宴,还发现盖茨比心中的秘密,原来他一直深爱着黛西,即使她没等到他战后归来,转而嫁给富豪汤姆,盖茨比一直深信他们的爱情矢志不渝。尼克作为盖茨比与黛西爱情的见证者,终于在盖茨比被谋杀之后,看清了这个上流社会的虚情寡义,决心远离喧嚣、冷漠、虚假的大都市,黯然回到故乡……


获奖情况


  第86届奥斯卡金像奖  (2014)
  最佳艺术指导 Beverley Dunn / 凯瑟琳·马丁
  最佳服装设计 凯瑟琳·马丁


  第16届美国服装设计工会奖  (2014)
  年代题材电影最佳服装设计(提名) 凯瑟琳·马丁


  第61届美国音效剪辑协会奖  (2014)
  金卷轴奖 最佳配乐剪辑 Jason Ruder / Tim Ryan / Craig Beckett


  第12届美国视觉效果协会奖  (2014)
  最佳电影辅助视觉效果(提名) Joyce Cox / Chris Godfrey


  第19届美国评论家选择电影奖  (2014)
  最佳美术指导 Beverley Dunn / 凯瑟琳·马丁
  最佳歌曲(提名) 拉娜·德雷
  最佳服装设计 凯瑟琳·马丁


  第18届金卫星奖  (2014)
  电影部门 最佳美术指导 Beverley Dunn / 凯瑟琳·马丁
  电影部门 最佳原创歌曲
  电影部门 最佳服装设计(提名) 凯瑟琳·马丁


  第12届华盛顿影评人协会奖  (2013)
  最佳导演(提名) 巴兹·鲁赫曼
  最佳摄影(提名)
  最佳艺术指导


  第18届圣地亚哥影评人协会奖  (2013)
  最佳摄影(提名) 西蒙·达根
  最佳艺术指导 Karen Murphy / 凯瑟琳·马丁


  第13届凤凰城影评人协会奖  (2013)
  最佳原创歌曲(提名)
  最佳摄影(提名) 西蒙·达根
  最佳服装设计 凯瑟琳·马丁
  最佳艺术指导(提名) Karen Murphy / 凯瑟琳·马丁


  第15届美国青少年选择奖  (2013)
  最佳剧情片(提名)
  最佳剧情片男演员(提名) 莱昂纳多·迪卡普里奥
  最佳剧情片女演员(提名) 凯瑞·穆里根


  第4届豆瓣电影鑫像奖  (2014)
  鑫豆单元 最佳爱情片(提名)
  豆渣单元 最渣导演(外语)(提名) 巴兹·鲁赫曼
  鑫豆单元 最佳配乐
  豆渣单元 最渣女演员(外语) 凯瑞·穆里根
  鑫豆单元 最佳歌曲(提名)




Video
ID                                       : 1
Format                                   : AVC
Format/Info                              : Advanced Video Codec
Format profile                           :
Format settings, CABAC                   : Yes
Format settings, ReFrames                : 2 frames
Codec ID                                 : V_MPEG4/ISO/AVC
Duration                                 : 2 h 22 min
Nominal bit rate                         : 16.0 Mb/s
Width                                    : 1 920 pixels
Height                                   : 1 080 pixels
Display aspect ratio                     : 16:9
Frame rate mode                          : Constant
Frame rate                               : 23.976 (24000/1001) FPS
Color space                              : YUV
Chroma subsampling                       : 4:2:0
Bit depth                                : 8 bits
Scan type                                : Progressive
Bits/(Pixel*Frame)                       : 0.322
Title                                    : The.Great.Gatsby.2013.1080p.3D.BluRay.Half-OU.x264.DTS-HD.MA.5.1-FGT
Writing library                          : x264 core 142
Encoding settings                        : cabac=1 / ref=1 / deblock=1:-1:-1 / analyse=0x3:0 / me=hex / subme=5 / psy=0 / mixed_ref=0 / me_range=16 / chroma_me=1 / trellis=0 / 8x8dct=1 / cqm=0 / deadzone=21,11 / fast_pskip=0 / chroma_qp_offset=0 / threads=8 / lookahead_threads=2 / sliced_threads=0 / nr=0 / decimate=1 / interlaced=0 / bluray_compat=0 / constrained_intra=0 / bframes=2 / b_pyramid=0 / b_adapt=1 / b_bias=0 / direct=1 / weightb=0 / open_gop=0 / weightp=0 / keyint=24 / keyint_min=13 / scenecut=40 / intra_refresh=0 / rc=2pass / mbtree=0 / bitrate=16000 / ratetol=1.0 / qcomp=0.60 / qpmin=0 / qpmax=69 / qpstep=4 / cplxblur=20.0 / qblur=0.5 / ip_ratio=1.40 / pb_ratio=1.30 / aq=1:1.00
Default                                  : Yes
Forced                                   : No
Color range                              : Limited
Color primaries                          : BT.709
Transfer characteristics                 : BT.709
Matrix coefficients                      : BT.709


Audio #1
ID                                       : 2
Format                                   : DTS
Format/Info                              : Digital Theater Systems
Format profile                           : MA / Core
Mode                                     : 16
Format settings, Endianness              : Big
Codec ID                                 : A_DTS
Duration                                 : 2 h 22 min
Bit rate mode                            : Variable / Constant
Bit rate                                 : Unknown / 1 509 kb/s
Channel(s)                               : 6 channels
Channel positions                        : Front: L C R, Side: L R, LFE
Sampling rate                            : 48.0 kHz
Frame rate                               : 93.750 FPS (512 spf)
Bit depth                                : 16 bits
Compression mode                         : Lossless / Lossy
Title                                    : The.Great.Gatsby.2013.1080p.3D.BluRay.Half-OU.x264.DTS-HD.MA.5.1-FGT
Language                                 : English
Default                                  : Yes
Forced                                   : No


Audio #2
ID                                       : 3
Format                                   : DTS
Format/Info                              : Digital Theater Systems
Mode                                     : 16
Format settings, Endianness              : Big
Codec ID                                 : A_DTS
Duration                                 : 2 h 22 min
Bit rate mode                            : Constant
Bit rate                                 : 1 509 kb/s
Channel(s)                               : 6 channels
Channel positions                        : Front: L C R, Side: L R, LFE
Sampling rate                            : 48.0 kHz
Frame rate                               : 93.750 FPS (512 spf)
Bit depth                                : 16 bits
Compression mode                         : Lossy
Stream size                              : 1.50 GiB (7%)
Title                                    : The.Great.Gatsby.2013.1080p.3D.BluRay.Half-OU.x264.DTS-HD.MA.5.1-FGT
Language                                 : English
Default                                  : No
Forced                                   : No


Audio #3
ID                                       : 4
Format                                   : AC-3
Format/Info                              : Audio Coding 3
Format settings, Endianness              : Big
Codec ID                                 : A_AC3
Duration                                 : 2 h 22 min
Bit rate mode                            : Constant
Bit rate                                 : 448 kb/s
Channel(s)                               : 6 channels
Channel positions                        : Front: L C R, Side: L R, LFE
Sampling rate                            : 48.0 kHz
Frame rate                               : 31.250 FPS (1536 spf)
Bit depth                                : 16 bits
Compression mode                         : Lossy
Stream size                              : 455 MiB (2%)
Title                                    : The.Great.Gatsby.2013.1080p.3D.BluRay.Half-OU.x264.DTS-HD.MA.5.1-FGT
Language                                 : Czech
Service kind                             : Complete Main
Default                                  : No
Forced                                   : No


Audio #4
ID                                       : 5
Format                                   : AC-3
Format/Info                              : Audio Coding 3
Format settings, Endianness              : Big
Codec ID                                 : A_AC3
Duration                                 : 2 h 22 min
Bit rate mode                            : Constant
Bit rate                                 : 448 kb/s
Channel(s)                               : 6 channels
Channel positions                        : Front: L C R, Side: L R, LFE
Sampling rate                            : 48.0 kHz
Frame rate                               : 31.250 FPS (1536 spf)
Bit depth                                : 16 bits
Compression mode                         : Lossy
Stream size                              : 455 MiB (2%)
Title                                    : The.Great.Gatsby.2013.1080p.3D.BluRay.Half-OU.x264.DTS-HD.MA.5.1-FGT
Language                                 : Hungarian
Service kind                             : Complete Main
Default                                  : No
Forced                                   : No


Audio #5
ID                                       : 6
Format                                   : AC-3
Format/Info                              : Audio Coding 3
Format settings, Endianness              : Big
Codec ID                                 : A_AC3
Duration                                 : 2 h 22 min
Bit rate mode                            : Constant
Bit rate                                 : 448 kb/s
Channel(s)                               : 6 channels
Channel positions                        : Front: L C R, Side: L R, LFE
Sampling rate                            : 48.0 kHz
Frame rate                               : 31.250 FPS (1536 spf)
Bit depth                                : 16 bits
Compression mode                         : Lossy
Stream size                              : 455 MiB (2%)
Title                                    : The.Great.Gatsby.2013.1080p.3D.BluRay.Half-OU.x264.DTS-HD.MA.5.1-FGT
Language                                 : Polish
Service kind                             : Complete Main
Default                                  : No
Forced                                   : No


Audio #6
ID                                       : 7
Format                                   : AC-3
Format/Info                              : Audio Coding 3
Format settings, Endianness              : Big
Codec ID                                 : A_AC3
Duration                                 : 2 h 22 min
Bit rate mode                            : Constant
Bit rate                                 : 448 kb/s
Channel(s)                               : 6 channels
Channel positions                        : Front: L C R, Side: L R, LFE
Sampling rate                            : 48.0 kHz
Frame rate                               : 31.250 FPS (1536 spf)
Bit depth                                : 16 bits
Compression mode                         : Lossy
Stream size                              : 455 MiB (2%)
Title                                    : The.Great.Gatsby.2013.1080p.3D.BluRay.Half-OU.x264.DTS-HD.MA.5.1-FGT
Language                                 : Russian
Service kind                             : Complete Main
Default                                  : No
Forced                                   : No


Audio #7
ID                                       : 8
Format                                   : AC-3
Format/Info                              : Audio Coding 3
Format settings, Endianness              : Big
Codec ID                                 : A_AC3
Duration                                 : 2 h 22 min
Bit rate mode                            : Constant
Bit rate                                 : 448 kb/s
Channel(s)                               : 6 channels
Channel positions                        : Front: L C R, Side: L R, LFE
Sampling rate                            : 48.0 kHz
Frame rate                               : 31.250 FPS (1536 spf)
Bit depth                                : 16 bits
Compression mode                         : Lossy
Stream size                              : 455 MiB (2%)
Title                                    : The.Great.Gatsby.2013.1080p.3D.BluRay.Half-OU.x264.DTS-HD.MA.5.1-FGT
Language                                 : Thai
Service kind                             : Complete Main
Default                                  : No
Forced                                   : No


Audio #8
ID                                       : 9
Format                                   : AC-3
Format/Info                              : Audio Coding 3
Mode                                     : Dolby Digital
Format settings, Endianness              : Big
Codec ID                                 : A_AC3
Duration                                 : 2 h 22 min
Bit rate mode                            : Constant
Bit rate                                 : 192 kb/s
Channel(s)                               : 2 channels
Channel positions                        : Front: L R
Sampling rate                            : 48.0 kHz
Frame rate                               : 31.250 FPS (1536 spf)
Bit depth                                : 16 bits
Compression mode                         : Lossy
Stream size                              : 195 MiB (1%)
Title                                    : The.Great.Gatsby.2013.1080p.3D.BluRay.Half-OU.x264.DTS-HD.MA.5.1-FGT
Language                                 : Turkish
Service kind                             : Complete Main
Default                                  : No
Forced                                   : No


Audio #9
ID                                       : 10
Format                                   : AC-3
Format/Info                              : Audio Coding 3
Format settings, Endianness              : Big
Codec ID                                 : A_AC3
Duration                                 : 2 h 22 min
Bit rate mode                            : Constant
Bit rate                                 : 448 kb/s
Channel(s)                               : 6 channels
Channel positions                        : Front: L C R, Side: L R, LFE
Sampling rate                            : 48.0 kHz
Frame rate                               : 31.250 FPS (1536 spf)
Bit depth                                : 16 bits
Compression mode                         : Lossy
Stream size                              : 455 MiB (2%)
Title                                    : The.Great.Gatsby.2013.1080p.3D.BluRay.Half-OU.x264.DTS-HD.MA.5.1-FGT
Language                                 : Ukrainian
Service kind                             : Complete Main
Default                                  : No
Forced                                   : No


Text #1
ID                                       : 11
Format                                   : PGS
Muxing mode                              : zlib
Codec ID                                 : S_HDMV/PGS
Codec ID/Info                            : Picture based subtitle format used on BDs/HD-DVDs
Title                                    : English-PGS
Language                                 : English
Default                                  : Yes
Forced                                   : No


Text #2
ID                                       : 12
Format                                   : PGS
Muxing mode                              : zlib
Codec ID                                 : S_HDMV/PGS
Codec ID/Info                            : Picture based subtitle format used on BDs/HD-DVDs
Title                                    : Chnese-PGS
Language                                 : Chinese
Default                                  : No
Forced                                   : No


Text #3
ID                                       : 13
Format                                   : PGS
Muxing mode                              : zlib
Codec ID                                 : S_HDMV/PGS
Codec ID/Info                            : Picture based subtitle format used on BDs/HD-DVDs
Title                                    : Chinese-PGS
Language                                 : Chinese
Default                                  : No
Forced                                   : No


Text #4
ID                                       : 14
Format                                   : PGS
Muxing mode                              : zlib
Codec ID                                 : S_HDMV/PGS
Codec ID/Info                            : Picture based subtitle format used on BDs/HD-DVDs
Title                                    : Korean-PGS
Language                                 : Korean
Default                                  : No
Forced                                   : No


Text #5
ID                                       : 15
Format                                   : PGS
Muxing mode                              : zlib
Codec ID                                 : S_HDMV/PGS
Codec ID/Info                            : Picture based subtitle format used on BDs/HD-DVDs
Title                                    : Arabic-PGS
Language                                 : Arabic
Default                                  : No
Forced                                   : No


Text #6
ID                                       : 16
Format                                   : PGS
Muxing mode                              : zlib
Codec ID                                 : S_HDMV/PGS
Codec ID/Info                            : Picture based subtitle format used on BDs/HD-DVDs
Title                                    : Bulgarian-PGS
Language                                 : Bulgarian
Default                                  : No
Forced      


The.Great.Gatsby.2013.1080p.3D.BluRay.Half-OU.x264.DTS-HD.MA.5.1-FGT[bt天堂 www.btbt4.com].torrent (57.31 KB, 下载次数: 0)

回复

使用道具 举报

小黑屋|西西论坛

本网站所有资源来自网络,如无意中侵犯了您的权益,请发邮件至 [email protected],立即清除相关链接

GMT+8, 2020-6-3 18:28 , Processed in 0.061696 second(s), 23 queries .

Powered by Discuz! X3.2

© 2001-2013 Comsenz Inc.

快速回复 返回顶部 返回列表