西西论坛

 找回密码
 立即注册
搜索

[上下格式] [BT下载]长城/万里长城[3D上下]2016.1080p.3D.BluRay.Half-OU.x264.DTS-...

[复制链接]
电影首发 发表于 2017-5-15 07:12:00 | 显示全部楼层 |阅读模式

译  名 长城/万里长城
片  名 The Great Wall
年  代 2016
产  地 中国大陆/美国
类  别 剧情/动作/奇幻/冒险
语  言 英语/汉语普通话
上映日期 2016-12-16(中国大陆)/2017-02-17(美国)
IMDb评分  6.1/10 from 49,712 users
  
豆瓣评分 4.9/10 from 204,552 users
 
西西电影网 http://www.xixi16.com
片  长 104分钟
导  演 张艺谋 Yimou Zhang
主  演 马特·达蒙 Matt Damon
      景甜 Tian Jing
      佩德罗·帕斯卡 Pedro Pascal
      刘德华 Andy Lau
      威廉·达福 Willem Dafoe
      张涵予 Hanyu Zhang
      鹿晗 Han Lu
      彭于晏 Eddie Peng
      林更新 Gengxin Lin
      郑恺 Kai Zheng
      黄轩 Xuan Huang
      陈学冬 Cheney Chen
      王俊凯 Karry
      余心恬 Xintian Yu
      刘冰 Qiong Liu
      李亨 Heng Li
      李京沐 Jingmu Li
      纽曼·阿卡 Numan Acar
      约翰尼·希科 Johnny Cicco
      皮鲁·埃斯贝克 Pilou Asbæk


简  介


  电影《长城》讲述了在古代,一支中国精英部队为保卫人类,在举世闻名的长城上与怪兽饕餮进行生死决战的故事。欧洲雇佣军威廉(马特·达蒙 Matt Damon 饰)与同伴佩罗·托瓦尔(佩德罗·帕斯卡 Pedro Pascal 饰)不远万里来到中国盗取火药配方,意外发现了长城是为抵御60年降临人间一次的饕餮所建。长城内部机关重重,宛如“陆上航母”,由无影禁军世代镇守。在这里,威廉见识了饕餮的凶残,也见证了无影禁军的精锐和勇敢,并被这群战士之间的信任和牺牲所感动,义无反顾地加入到了共同守护人类的战斗当中。




Video
ID                                       : 1
Format                                   : AVC
Format/Info                              : Advanced Video Codec
Format profile                           :
Format settings, CABAC                   : Yes
Format settings, ReFrames                : 2 frames
Codec ID                                 : V_MPEG4/ISO/AVC
Duration                                 : 1h 43mn
Nominal bit rate                         : 16.0 Mbps
Width                                    : 1 920 pixels
Height                                   : 1 080 pixels
Display aspect ratio                     : 16:9
Frame rate mode                          : Constant
Frame rate                               : 23.976 (24000/1001) fps
Color space                              : YUV
Chroma subsampling                       : 4:2:0
Bit depth                                : 8 bits
Scan type                                : Progressive
Bits/(Pixel*Frame)                       : 0.322
Title                                    : The.Great.Wall.2016.1080p.3D.BluRay.Half-OU.x264.DTS-HD.MA.7.1-FGT
Writing library                          : x264 core 142
Encoding settings                        : cabac=1 / ref=1 / deblock=1:-1:-1 / analyse=0x3:0 / me=hex / subme=5 / psy=0 / mixed_ref=0 / me_range=16 / chroma_me=1 / trellis=0 / 8x8dct=1 / cqm=0 / deadzone=21,11 / fast_pskip=0 / chroma_qp_offset=0 / threads=8 / lookahead_threads=2 / sliced_threads=0 / nr=0 / decimate=1 / interlaced=0 / bluray_compat=0 / constrained_intra=0 / bframes=2 / b_pyramid=0 / b_adapt=1 / b_bias=0 / direct=1 / weightb=0 / open_gop=0 / weightp=0 / keyint=24 / keyint_min=13 / scenecut=40 / intra_refresh=0 / rc=abr / mbtree=0 / bitrate=16000 / ratetol=1.0 / qcomp=0.60 / qpmin=0 / qpmax=69 / qpstep=4 / ip_ratio=1.40 / pb_ratio=1.30 / aq=1:1.00
Default                                  : Yes
Forced                                   : No
Color range                              : Limited
Color primaries                          : BT.709
Transfer characteristics                 : BT.709
Matrix coefficients                      : BT.709


Audio #1
ID                                       : 2
Format                                   : DTS
Format/Info                              : Digital Theater Systems
Format profile                           : MA / Core
Mode                                     : 16
Format settings, Endianness              : Big
Codec ID                                 : A_DTS
Duration                                 : 1h 43mn
Bit rate mode                            : Variable / Constant
Bit rate                                 : Unknown / 1 509 Kbps
Channel(s)                               : 8 channels / 6 channels
Channel positions                        : Front: L C R, Side: L R, Back: L R, LFE / Front: L C R, Side: L R, LFE
Sampling rate                            : 48.0 KHz
Frame rate                               : 93.750 fps (512 spf)
Bit depth                                : 24 bits
Compression mode                         : Lossless / Lossy
Title                                    : The.Great.Wall.2016.1080p.3D.BluRay.Half-OU.x264.DTS-HD.MA.7.1-FGT
Language                                 : English
Default                                  : Yes
Forced                                   : No


Audio #2
ID                                       : 3
Format                                   : AC-3
Format/Info                              : Audio Coding 3
Mode extension                           : CM (complete main)
Format settings, Endianness              : Big
Codec ID                                 : A_AC3
Duration                                 : 1h 43mn
Bit rate mode                            : Constant
Bit rate                                 : 640 Kbps
Channel(s)                               : 6 channels
Channel positions                        : Front: L C R, Side: L R, LFE
Sampling rate                            : 48.0 KHz
Frame rate                               : 31.250 fps (1536 spf)
Compression mode                         : Lossy
Stream size                              : 472 MiB (3%)
Title                                    : The.Great.Wall.2016.1080p.3D.BluRay.Half-OU.x264.DTS-HD.MA.7.1-FGT
Language                                 : English
Default                                  : No
Forced                                   : No


Audio #3
ID                                       : 4
Format                                   : AC-3
Format/Info                              : Audio Coding 3
Mode extension                           : CM (complete main)
Format settings, Endianness              : Big
Codec ID                                 : A_AC3
Duration                                 : 1h 43mn
Bit rate mode                            : Constant
Bit rate                                 : 640 Kbps
Channel(s)                               : 6 channels
Channel positions                        : Front: L C R, Side: L R, LFE
Sampling rate                            : 48.0 KHz
Frame rate                               : 31.250 fps (1536 spf)
Compression mode                         : Lossy
Stream size                              : 472 MiB (3%)
Title                                    : The.Great.Wall.2016.1080p.3D.BluRay.Half-OU.x264.DTS-HD.MA.7.1-FGT
Language                                 : Spanish
Default                                  : No
Forced                                   : No


Audio #4
ID                                       : 5
Format                                   : AC-3
Format/Info                              : Audio Coding 3
Mode extension                           : CM (complete main)
Format settings, Endianness              : Big
Codec ID                                 : A_AC3
Duration                                 : 1h 43mn
Bit rate mode                            : Constant
Bit rate                                 : 640 Kbps
Channel(s)                               : 6 channels
Channel positions                        : Front: L C R, Side: L R, LFE
Sampling rate                            : 48.0 KHz
Frame rate                               : 31.250 fps (1536 spf)
Compression mode                         : Lossy
Stream size                              : 472 MiB (3%)
Title                                    : The.Great.Wall.2016.1080p.3D.BluRay.Half-OU.x264.DTS-HD.MA.7.1-FGT
Language                                 : Portuguese
Default                                  : No
Forced                                   : No


Audio #5
ID                                       : 6
Format                                   : AC-3
Format/Info                              : Audio Coding 3
Mode extension                           : CM (complete main)
Format settings, Endianness              : Big
Codec ID                                 : A_AC3
Duration                                 : 1h 43mn
Bit rate mode                            : Constant
Bit rate                                 : 640 Kbps
Channel(s)                               : 6 channels
Channel positions                        : Front: L C R, Side: L R, LFE
Sampling rate                            : 48.0 KHz
Frame rate                               : 31.250 fps (1536 spf)
Compression mode                         : Lossy
Stream size                              : 472 MiB (3%)
Title                                    : The.Great.Wall.2016.1080p.3D.BluRay.Half-OU.x264.DTS-HD.MA.7.1-FGT
Language                                 : Russian
Default                                  : No
Forced                                   : No


Audio #6
ID                                       : 7
Format                                   : AC-3
Format/Info                              : Audio Coding 3
Mode extension                           : CM (complete main)
Format settings, Endianness              : Big
Codec ID                                 : A_AC3
Duration                                 : 1h 43mn
Bit rate mode                            : Constant
Bit rate                                 : 640 Kbps
Channel(s)                               : 6 channels
Channel positions                        : Front: L C R, Side: L R, LFE
Sampling rate                            : 48.0 KHz
Frame rate                               : 31.250 fps (1536 spf)
Compression mode                         : Lossy
Stream size                              : 472 MiB (3%)
Title                                    : The.Great.Wall.2016.1080p.3D.BluRay.Half-OU.x264.DTS-HD.MA.7.1-FGT
Language                                 : Czech
Default                                  : No
Forced                                   : No


Audio #7
ID                                       : 8
Format                                   : AC-3
Format/Info                              : Audio Coding 3
Mode extension                           : CM (complete main)
Format settings, Endianness              : Big
Codec ID                                 : A_AC3
Duration                                 : 1h 43mn
Bit rate mode                            : Constant
Bit rate                                 : 640 Kbps
Channel(s)                               : 6 channels
Channel positions                        : Front: L C R, Side: L R, LFE
Sampling rate                            : 48.0 KHz
Frame rate                               : 31.250 fps (1536 spf)
Compression mode                         : Lossy
Stream size                              : 472 MiB (3%)
Title                                    : The.Great.Wall.2016.1080p.3D.BluRay.Half-OU.x264.DTS-HD.MA.7.1-FGT
Language                                 : Hungarian
Default                                  : No
Forced                                   : No


Audio #8
ID                                       : 9
Format                                   : AC-3
Format/Info                              : Audio Coding 3
Mode extension                           : CM (complete main)
Format settings, Endianness              : Big
Codec ID                                 : A_AC3
Duration                                 : 1h 43mn
Bit rate mode                            : Constant
Bit rate                                 : 640 Kbps
Channel(s)                               : 6 channels
Channel positions                        : Front: L C R, Side: L R, LFE
Sampling rate                            : 48.0 KHz
Frame rate                               : 31.250 fps (1536 spf)
Compression mode                         : Lossy
Stream size                              : 472 MiB (3%)
Title                                    : The.Great.Wall.2016.1080p.3D.BluRay.Half-OU.x264.DTS-HD.MA.7.1-FGT
Language                                 : Polish
Default                                  : No
Forced                                   : No


Audio #9
ID                                       : 10
Format                                   : AC-3
Format/Info                              : Audio Coding 3
Mode extension                           : CM (complete main)
Format settings, Endianness              : Big
Codec ID                                 : A_AC3
Duration                                 : 1h 43mn
Bit rate mode                            : Constant
Bit rate                                 : 640 Kbps
Channel(s)                               : 6 channels
Channel positions                        : Front: L C R, Side: L R, LFE
Sampling rate                            : 48.0 KHz
Frame rate                               : 31.250 fps (1536 spf)
Compression mode                         : Lossy
Stream size                              : 472 MiB (3%)
Title                                    : The.Great.Wall.2016.1080p.3D.BluRay.Half-OU.x264.DTS-HD.MA.7.1-FGT
Language                                 : Thai
Default                                  : No
Forced                                   : No


Audio #10
ID                                       : 11
Format                                   : AC-3
Format/Info                              : Audio Coding 3
Mode extension                           : CM (complete main)
Format settings, Endianness              : Big
Codec ID                                 : A_AC3
Duration                                 : 1h 43mn
Bit rate mode                            : Constant
Bit rate                                 : 640 Kbps
Channel(s)                               : 6 channels
Channel positions                        : Front: L C R, Side: L R, LFE
Sampling rate                            : 48.0 KHz
Frame rate                               : 31.250 fps (1536 spf)
Compression mode                         : Lossy
Stream size                              : 472 MiB (3%)
Title                                    : The.Great.Wall.2016.1080p.3D.BluRay.Half-OU.x264.DTS-HD.MA.7.1-FGT
Language                                 : Turkish
Default                                  : No
Forced                                   : No


Text #1
ID                                       : 12
Format                                   : PGS
Muxing mode                              : zlib
Codec ID                                 : S_HDMV/PGS
Codec ID/Info                            : Picture based subtitle format used on BDs/HD-DVDs
Title                                    : English-FORCED-PGS
Language                                 : English
Default                                  : Yes
Forced                                   : Yes


Text #2
ID                                       : 13
Format                                   : PGS
Muxing mode                              : zlib
Codec ID                                 : S_HDMV/PGS
Codec ID/Info                            : Picture based subtitle format used on BDs/HD-DVDs
Title                                    : English-PGS
Language                                 : English
Default                                  : No
Forced                                   : No


Text #3
ID                                       : 14
Format                                   : PGS
Muxing mode                              : zlib
Codec ID                                 : S_HDMV/PGS
Codec ID/Info                            : Picture based subtitle format used on BDs/HD-DVDs
Title                                    : Spanish-PGS
Language                                 : Spanish
Default                                  : No
Forced                                   : No


Text #4
ID                                       : 15
Format                                   : PGS
Muxing mode                              : zlib
Codec ID                                 : S_HDMV/PGS
Codec ID/Info                            : Picture based subtitle format used on BDs/HD-DVDs
Title                                    : Portuguese-PGS
Language                                 : Portuguese
Default                                  : No
Forced                                   : No


Text #5
ID                                       : 16
Format                                   : PGS
Muxing mode                              : zlib
Codec ID                                 : S_HDMV/PGS
Codec ID/Info                            : Picture based subtitle format used on BDs/HD-DVDs
Title                                    : Turkish-PGS
Language                                 : Turkish
Default                                  : No
Forced                                   : No


Text #6
ID                                       : 17
Format                                   : PGS
Muxing mode                              : zlib
Codec ID                                 : S_HDMV/PGS
Codec ID/Info                            : Picture based subtitle format used on BDs/HD-DVDs
Title                                    : Russian-PGS
Language                                 : Russian
Default                                  : No
Forced                                   : No


Text #7
ID                                       : 18
Format                                   : PGS
Muxing mode                              : zlib
Codec ID                                 : S_HDMV/PGS
Codec ID/Info                            : Picture based subtitle format used on BDs/HD-DVDs
Title                                    : Czech-PGS
Language                                 : Czech
Default                                  : No
Forced                                   : No


Text #8
ID                                       : 19
Format                                   : PGS
Muxing mode                              : zlib
Codec ID                                 : S_HDMV/PGS
Codec ID/Info                            : Picture based subtitle format used on BDs/HD-DVDs
Title                                    : Hungarian-PGS
Language                                 : Hungarian
Default                                  : No
Forced                                   : No


Text #9
ID                                       : 20
Format                                   : PGS
Muxing mode                              : zlib
Codec ID                                 : S_HDMV/PGS
Codec ID/Info                            : Picture based subtitle format used on BDs/HD-DVDs
Title                                    : Polish-PGS
Language                                 : Polish
Default                                  : No
Forced                                   : No


Text #10
ID                                       : 21
Format                                   : PGS
Muxing mode                              : zlib
Codec ID                                 : S_HDMV/PGS
Codec ID/Info                            : Picture based subtitle format used on BDs/HD-DVDs
Title                                    : Thai-PGS
Language                                 : Thai
Default                                  : No
Forced                                   : No


Text #11
ID                                       : 22
Format                                   : PGS
Muxing mode                              : zlib
Codec ID                                 : S_HDMV/PGS
Codec ID/Info                            : Picture based subtitle format used on BDs/HD-DVDs
Title                                    : Chinese-PGS
Language                                 : Chinese
Default                                  : No
Forced                                   : No


Text #12
ID                                       : 23
Format                                   : PGS
Muxing mode                              : zlib
Codec ID                                 : S_HDMV/PGS
Codec ID/Info                            : Picture based subtitle format used on BDs/HD-DVDs
Title                                    : Chinese-PGS
Language                                 : Chinese
Default                                  : No
Forced                                   : No


Text #13
ID                                       : 24
Format                                   : PGS
Muxing mode                              : zlib
Codec ID                                 : S_HDMV/PGS
Codec ID/Info                            : Picture based subtitle format used on BDs/HD-DVDs
Title                                    : Indonesian-PGS
Language                                 : Indonesian
Default                                  : No
Forced                                   : No


Text #14
ID                                       : 25
Format                                   : PGS
Muxing mode                              : zlib
Codec ID                                 : S_HDMV/PGS
Codec ID/Info                            : Picture based subtitle format used on BDs/HD-DVDs
Title                                    : Korean-PGS
Language                                 : Korean
Default                                  : No
Forced                                   : No


Text #15
ID                                       : 26
Format                                   : PGS
Muxing mode                              : zlib
Codec ID                                 : S_HDMV/PGS
Codec ID/Info                            : Picture based subtitle format used on BDs/HD-DVDs
Title                                    : Greek-PGS
Language                                 : Greek
Default                                  : No
Forced                                   : No


Text #16
ID                                       : 27
Format                                   : PGS
Muxing mode                              : zlib
Codec ID                                 : S_HDMV/PGS
Codec ID/Info                            : Picture based subtitle format used on BDs/HD-DVDs
Title                                    : Bulgarian-PGS
Language                                 : Bulgarian
Default                                  : No
Forced                                   : No


Text #17
ID                                       : 28
Format                                   : PGS
Muxing mode                              : zl

The.Great.Wall.2016.1080p.3D.BluRay.Half-OU.x264.DTS-HD.MA.7.1-FGT[bt天堂 www.btbt4.com].torrent (92.64 KB, 下载次数: 0)

回复

使用道具 举报

小黑屋|西西论坛

本网站所有资源来自网络,如无意中侵犯了您的权益,请发邮件至 [email protected],立即清除相关链接

GMT+8, 2020-6-3 19:02 , Processed in 0.154510 second(s), 23 queries .

Powered by Discuz! X3.2

© 2001-2013 Comsenz Inc.

快速回复 返回顶部 返回列表