西西论坛

 找回密码
 立即注册
搜索

[爱情片] [BT下载]格尔尼卡 Gernika.2016.PROPER.720p.BluRay.x264.DTS-FGT 5.23GB

[复制链接]
电影首发 发表于 2017-1-16 09:56:00 | 显示全部楼层 |阅读模式

译  名 格尔尼卡
片  名 Gernika
年  代 2016
国  家 西班牙
类  别 爱情/战争
语  言 英语3/
片  长 110分钟
导  演 科尔多·塞拉 Koldo Serra
主  演 杰克·达文波特 Jack Davenport
      玛利亚·瓦沃德 María Valverde
      詹姆斯·达西 James D'Arcy
      伯恩·戈曼 Burn Gorman
      伊琳娜·埃斯柯拉 Irene Escolar
      艾利克斯·加西亚 Álex García
      英格丽德·加西亚·约翰逊 Ingrid García Jonsson
      芭芭拉·格娜加 Bárbara Goenaga
      胡里安·毕亚格兰 Julián Villagrán
      约阿希姆·保罗·阿斯波克 Joachim Paul Assböck
      拉蒙·巴雷阿 Ramón Barea
      达里奥·帕索 Darío Paso
      大卫·莫拉 David Mora


简  介


  这是一部以二战为背景的影片,男主角是一个记者而女主角则是在政府审查部门工作,从职业角度看男女主角无疑是死对头。这两个人在西班牙一个叫格尔尼卡的地方相遇。


获奖情况


  第31届西班牙戈雅奖  (2017)
  最佳特效(提名)



Video
ID                                       : 1
Format                                   : AVC
Format/Info                              : Advanced Video Codec
Format profile                           : [email protected]
Format settings, CABAC                   : Yes
Format settings, ReFrames                : 4 frames
Codec ID                                 : V_MPEG4/ISO/AVC
Duration                                 : 1h 50mn
Bit rate                                 : 5 849 Kbps
Width                                    : 1 280 pixels
Height                                   : 536 pixels
Display aspect ratio                     : 2.40:1
Frame rate mode                          : Constant
Frame rate                               : 24.000 fps
Color space                              : YUV
Chroma subsampling                       : 4:2:0
Bit depth                                : 8 bits
Scan type                                : Progressive
Bits/(Pixel*Frame)                       : 0.355
Stream size                              : 4.53 GiB (87%)
Title                                    : Gernika.2016.720p.BluRay.x264.DTS-FGT
Language                                 : English
Default                                  : Yes
Forced                                   : No

Audio
ID                                       : 2
Format                                   : DTS
Format/Info                              : Digital Theater Systems
Mode                                     : 16
Format settings, Endianness              : Big
Codec ID                                 : A_DTS
Duration                                 : 1h 50mn
Bit rate mode                            : Constant
Bit rate                                 : 768 Kbps
Channel(s)                               : 6 channels
Channel positions                        : Front: L C R, Side: L R, LFE
Sampling rate                            : 48.0 KHz
Frame rate                               : 93.750 fps (512 spf)
Bit depth                                : 24 bits
Compression mode                         : Lossy
Stream size                              : 609 MiB (11%)
Title                                    : Gernika.2016.720p.BluRay.x264.DTS-FGT
Language                                 : English
Default                                  : Yes
Forced                                   : No

Text #1
ID                                       : 3
Format                                   : UTF-8
Codec ID                                 : S_TEXT/UTF8
Codec ID/Info                            : UTF-8 Plain Text
Title                                    : FORCED
Language                                 : English
Default                                  : Yes
Forced                                   : Yes

Text #2
ID                                       : 4
Format                                   : UTF-8
Codec ID                                 : S_TEXT/UTF8
Codec ID/Info                            : UTF-8 Plain Text
Language                                 : English
Default                                  : No
Forced                                   : No

Menu
00:00:00.000                             : en:
00:06:57.042                             : en:
00:15:43.500                             : en:
00:24:56.625                             : en:
00:31:38.708                             : en:
00:43:28.458                             : en:
00:51:43.958                             : en:
01:00:13.542                             : en:
01:10:32.667                             : en:
01:19:28.542                             : en:
01:25:53.667                             : en:
01:33:01.583                             : en:





                                                                                                                                                                                                        

          Gernika.2016.PROPER.720p.BluRay.x264.DTS-FGT[bt天堂 www.btbt4.com].torrent (52.93 KB, 下载次数: 0)

回复

使用道具 举报

小黑屋|西西论坛

本网站所有资源来自网络,如无意中侵犯了您的权益,请发邮件至 [email protected],立即清除相关链接

GMT+8, 2020-4-7 21:25 , Processed in 0.062380 second(s), 23 queries .

Powered by Discuz! X3.2

© 2001-2013 Comsenz Inc.

快速回复 返回顶部 返回列表