西西论坛

 找回密码
 立即注册
搜索

[其他] [BT下载]我既闪电/我是博尔特 I.Am.Bolt.2016.720p.BluRay.x264.DTS-FGT 4.59GB ... ...

[复制链接]
电影首发 发表于 2016-12-3 19:54:00 | 显示全部楼层 |阅读模式

译  名 我既闪电/我是博尔特
片  名 I Am Bolt
年  代 2016
国  家 英国
类  别 纪录片/运动
语  言 英语
导  演 盖布·特纳 Gabe Turner / 本杰明·特纳 Benjamin Turner
主  演 尤塞恩·博尔特 Usain Bolt


简  介


  他是这个时代田径场上的最大奇迹。
从2008年的北京到今天的里约,博尔特连续收获三届奥运会百米冠军。令人称奇的是,博尔特从出道以来,在100米这个象征人类绝对速度和爆发力的标志性项目上,逢大赛几乎保持全胜。让人陡生感叹:打败他的只有时光!
尽管9.81秒距离博尔特9.58秒的世界纪录还有不小的差距,但是对于受连年伤病困扰的博尔特而言,能站在里约奥运百米跑道上就已经是一种莫大的勇气。
博尔特自8年前奥运会上横空出世,将男子100米纪录改写为9.69秒并包揽100米、200米、4×100米三枚金牌之后,他在八年时间里已经收获6枚奥运金牌、11枚世锦赛金牌。如果不是因为牙买加“闪电”“大意失荆州”在2011年大邱世锦赛百米决赛中抢跑被罚下,博尔特绝对有实力包揽最近四届世锦赛100米、200米和接力的全部12枚金牌。
如此大赛不败的奇迹是不是就是神话?
“闪电”、“世界纪录”、“牙买加山药”,这是人们有关博尔特记忆的几个关键词,但最近外媒曝光一组博尔特双脚照片,博尔特的双脚已经满目疮痍。人们突然明白了惊人成绩的背后是博尔特巨大的付出!
属于博尔特的奇迹还在继续,属于这个时代人类的传奇还在继续。
即将公映的电影《我既闪电/我是博尔特》是这位飞人首次“触电”,影片以纪录片的形式,讲述了奥运九金王的奋斗历程。人们将从这部纪录片里看到博尔特的另一面。
据了解,这部纪录片自2015年年初开始拍摄,摄制组跟随博尔特去了很多地方,进行追踪拍摄,期间包括2015年的北京田径世锦赛。




Video
ID                                       : 1
Format                                   : AVC
Format/Info                              : Advanced Video Codec
Format settings, CABAC                   : Yes
Format settings, ReFrames                : 4 frames
Codec ID                                 : V_MPEG4/ISO/AVC
Duration                                 : 1h 47mn
Bit rate                                 : 5 218 Kbps
Nominal bit rate                         : 5 500 Kbps
Width                                    : 1 280 pixels
Height                                   : 720 pixels
Display aspect ratio                     : 16:9
Frame rate mode                          : Constant
Frame rate                               : 23.976 (24000/1001) fps
Color space                              : YUV
Chroma subsampling                       : 4:2:0
Bit depth                                : 8 bits
Scan type                                : Progressive
Bits/(Pixel*Frame)                       : 0.236
Stream size                              : 3.92 GiB (85%)
Writing library                          : x264 core 148 r2694 3b70645
Encoding settings                        : cabac=1 / ref=4 / deblock=1:-2:-2 / analyse=0x3:0x113 / me=umh / subme=7 / psy=1 / psy_rd=1.00:0.15 / mixed_ref=1 / me_range=16 / chroma_me=1 / trellis=1 / 8x8dct=1 / cqm=0 / deadzone=21,11 / fast_pskip=1 / chroma_qp_offset=-3 / threads=24 / lookahead_threads=3 / sliced_threads=0 / nr=0 / decimate=1 / interlaced=0 / bluray_compat=0 / constrained_intra=0 / bframes=3 / b_pyramid=2 / b_adapt=2 / b_bias=0 / direct=3 / weightb=1 / open_gop=0 / weightp=2 / keyint=250 / keyint_min=25 / scenecut=40 / intra_refresh=0 / rc_lookahead=50 / rc=abr / mbtree=1 / bitrate=5500 / ratetol=1.0 / qcomp=0.60 / qpmin=0 / qpmax=69 / qpstep=4 / vbv_maxrate=31250 / vbv_bufsize=31250 / nal_hrd=none / filler=0 / ip_ratio=1.40 / aq=1:1.00
Language                                 : English
Default                                  : Yes
Forced                                   : No

Audio
ID                                       : 2
Format                                   : DTS
Format/Info                              : Digital Theater Systems
Mode                                     : 16
Format settings, Endianness              : Big
Codec ID                                 : A_DTS
Duration                                 : 1h 47mn
Bit rate mode                            : Constant
Bit rate                                 : 768 Kbps
Channel(s)                               : 6 channels
Channel positions                        : Front: L C R, Side: L R, LFE
Sampling rate                            : 48.0 KHz
Frame rate                               : 93.750 fps (512 spf)
Bit depth                                : 24 bits
Compression mode                         : Lossy
Stream size                              : 591 MiB (13%)
Title                                    : I.Am.Bolt.2016.720p.BluRay.x264.DTS-FGT
Language                                 : English
Default                                  : Yes
Forced                                   : No

Text #1
ID                                       : 3
Format                                   : UTF-8
Codec ID                                 : S_TEXT/UTF8
Codec ID/Info                            : UTF-8 Plain Text
Title                                    : FORCED
Language                                 : English
Default                                  : Yes
Forced                                   : Yes

Text #2
ID                                       : 4
Format                                   : UTF-8
Codec ID                                 : S_TEXT/UTF8
Codec ID/Info                            : UTF-8 Plain Text
Language                                 : English
Default                                  : No
Forced                                   : No

Menu
00:00:00.000                             : en:Chapter 01
00:07:23.192                             : en:Chapter 02
00:14:22.236                             : en:Chapter 03
00:22:38.732                             : en:Chapter 04
00:29:58.129                             : en:Chapter 05
00:41:12.470                             : en:Chapter 06
00:49:45.148                             : en:Chapter 07
01:02:24.365                             : en:Chapter 08
01:16:18.907                             : en:Chapter 09
01:22:56.471                             : en:Chapter 10
01:32:05.186                             : en:Chapter 11
01:39:16.367                             : en:Chapter 12
01:47:27.774                             : en:Chapter 13





                                                                                                                                                                                                        

             I.Am.Bolt.2016.720p.BluRay.x264.DTS-FGT[百度云电影 www.baiduyund.com].torrent (92.41 KB, 下载次数: 0)

回复

使用道具 举报

小黑屋|西西论坛

本网站所有资源来自网络,如无意中侵犯了您的权益,请发邮件至 [email protected],立即清除相关链接

GMT+8, 2020-4-4 21:01 , Processed in 0.065703 second(s), 23 queries .

Powered by Discuz! X3.2

© 2001-2013 Comsenz Inc.

快速回复 返回顶部 返回列表