西西论坛

 找回密码
 立即注册
搜索

[其他] [BT下载]鲍比 Bobby.2016.720p.BluRay.x264-GHOULS 4.37GB

[复制链接]
电影首发 发表于 2016-6-14 08:14:00 | 显示全部楼层 |阅读模式

译  名 鲍比
片  名 Bobby
年  代 2016
国  家 美国
类  别 记录/体育
语  言 英语
片  长 1h 37min
导  演 Ron Scalpello
主  演 Gordon Banks         ...        Himself
      Geoff Hurst         ...        Himself
      Bobby Moore         ...        Himself (archive footage)
      Pelé         ...        Himself


简  介


  A film which marks the 50th anniversary of England's victory in the 1966 World Cup| and uncovers the truth behind the man who led them to it... Bo66y is a powerful|
dramatic and deeply personal portrait of a genuine footballing icon. Moore fought many battles besides those witnessed by millions on the football field. Behind the
glory lies the story of a man who faced highs and lows with the same strength and bravery. But he died young| cruelly shunned by the game and by the very people who
owed him so much. The story is told by his two wives| his friends and fans| including Pele| Sir Geoff Hurst Harry Redknapp| Ray Davies| Ray Winstone and Russell
Brand| and more than 30 others| whose words are mixed with as yet unseen archive footage.


Video
ID                                       : 2
Format                                   : AVC
Format/Info                              : Advanced Video Codec
Format profile                           : [email protected]
Format settings, CABAC                   : Yes
Format settings, ReFrames                : 5 frames
Codec ID                                 : V_MPEG4/ISO/AVC
Duration                                 : 1h 33mn
Bit rate                                 : 5 179 Kbps
Width                                    : 1 280 pixels
Height                                   : 536 pixels
Display aspect ratio                     : 2.40:1
Frame rate mode                          : Constant
Frame rate                               : 25.000 fps
Color space                              : YUV
Chroma subsampling                       : 4:2:0
Bit depth                                : 8 bits
Scan type                                : Progressive
Bits/(Pixel*Frame)                       : 0.302
Stream size                              : 3.29 GiB (75%)
Writing library                          : x264 core 148 r2692 64f4e24
Encoding settings                        : cabac=1 / ref=5 / deblock=1:-1:-1 / analyse=0x3:0x133 / me=umh / subme=7 / psy=1 / psy_rd=1.00:0.00 / mixed_ref=1 / me_range=16 / chroma_me=1 / trellis=1 / 8x8dct=1 / cqm=0 / deadzone=21,11 / fast_pskip=0 / chroma_qp_offset=-2 / threads=6 / lookahead_threads=1 / sliced_threads=0 / nr=0 / decimate=1 / interlaced=0 / bluray_compat=0 / constrained_intra=0 / bframes=3 / b_pyramid=2 / b_adapt=2 / b_bias=0 / direct=3 / weightb=1 / open_gop=0 / weightp=2 / keyint=250 / keyint_min=25 / scenecut=40 / intra_refresh=0 / rc_lookahead=50 / rc=2pass / mbtree=1 / bitrate=5179 / ratetol=1.0 / qcomp=0.60 / qpmin=10 / qpmax=51 / qpstep=4 / cplxblur=20.0 / qblur=0.5 / vbv_maxrate=62500 / vbv_bufsize=78125 / nal_hrd=none / filler=0 / ip_ratio=1.40 / aq=1:1.00
Default                                  : Yes
Forced                                   : No

Audio
ID                                       : 1
Format                                   : DTS
Format/Info                              : Digital Theater Systems
Mode                                     : 16
Format settings, Endianness              : Big
Codec ID                                 : A_DTS
Duration                                 : 1h 33mn
Bit rate mode                            : Constant
Bit rate                                 : 1 509 Kbps
Channel(s)                               : 6 channels
Channel positions                        : Front: L C R, Side: L R, LFE
Sampling rate                            : 48.0 KHz
Frame rate                               : 93.750 fps (512 spf)
Bit depth                                : 24 bits
Compression mode                         : Lossy
Stream size                              : 1 009 MiB (23%)
Language                                 : English
Default                                  : Yes
Forced                                   : No

Menu
00:00:00.000                             : en:00:00:00.000
00:07:02.080                             : en:00:07:02.080
00:12:49.000                             : en:00:12:49.000
00:17:10.920                             : en:00:17:10.920
00:23:20.480                             : en:00:23:20.480
00:31:10.200                             : en:00:31:10.200
00:35:37.480                             : en:00:35:37.480
00:41:39.400                             : en:00:41:39.400
00:47:43.760                             : en:00:47:43.760
00:52:37.240                             : en:00:52:37.240
00:59:15.400                             : en:00:59:15.400
01:06:14.880                             : en:01:06:14.880
01:12:22.560                             : en:01:12:22.560
01:17:27.440                             : en:01:17:27.440
01:24:03.000                             : en:01:24:03.000
01:29:53.960                             : en:01:29:53.960







                                                                                                                                                                                  Bobby.2016.720p.BluRay.x264-GHOULS[www.xixi16.com].torrent (87.9 KB, 下载次数: 0)

回复

使用道具 举报

小黑屋|西西论坛

本网站所有资源来自网络,如无意中侵犯了您的权益,请发邮件至 [email protected],立即清除相关链接

GMT+8, 2020-3-31 14:39 , Processed in 0.070630 second(s), 23 queries .

Powered by Discuz! X3.2

© 2001-2013 Comsenz Inc.

快速回复 返回顶部 返回列表